  0
SECTION
  2
HEADER
  9
$ACADVER
  1
AC1015
  9
$ACADMAINTVER
 70
     6
  9
$DWGCODEPAGE
  3
ANSI_1252
  9
$INSBASE
 10
0.0
 20
0.0
 30
0.0
  9
$EXTMIN
 10
-105.0
 20
0.0
 30
0.0
  9
$EXTMAX
 10
0.00000000000006
 20
148.5000000000001
 30
0.0
  9
$LIMMIN
 10
0.0
 20
0.0
  9
$LIMMAX
 10
12.0
 20
9.0
  9
$ORTHOMODE
 70
     0
  9
$REGENMODE
 70
     1
  9
$FILLMODE
 70
     1
  9
$QTEXTMODE
 70
     0
  9
$MIRRTEXT
 70
     1
  9
$LTSCALE
 40
1.0
  9
$ATTMODE
 70
     1
  9
$TEXTSIZE
 40
0.2
  9
$TRACEWID
 40
0.05
  9
$TEXTSTYLE
  7
Standard
  9
$CLAYER
  8
0
  9
$CELTYPE
  6
ByLayer
  9
$CECOLOR
 62
   256
  9
$CELTSCALE
 40
1.0
  9
$DISPSILH
 70
     0
  9
$DIMSCALE
 40
1.0
  9
$DIMASZ
 40
0.18
  9
$DIMEXO
 40
0.0625
  9
$DIMDLI
 40
0.38
  9
$DIMRND
 40
0.0
  9
$DIMDLE
 40
0.0
  9
$DIMEXE
 40
0.18
  9
$DIMTP
 40
0.0
  9
$DIMTM
 40
0.0
  9
$DIMTXT
 40
0.18
  9
$DIMCEN
 40
0.09
  9
$DIMTSZ
 40
0.0
  9
$DIMTOL
 70
     0
  9
$DIMLIM
 70
     0
  9
$DIMTIH
 70
     1
  9
$DIMTOH
 70
     1
  9
$DIMSE1
 70
     0
  9
$DIMSE2
 70
     0
  9
$DIMTAD
 70
     0
  9
$DIMZIN
 70
     0
  9
$DIMBLK
  1

  9
$DIMASO
 70
     1
  9
$DIMSHO
 70
     1
  9
$DIMPOST
  1

  9
$DIMAPOST
  1

  9
$DIMALT
 70
     0
  9
$DIMALTD
 70
     2
  9
$DIMALTF
 40
25.4
  9
$DIMLFAC
 40
1.0
  9
$DIMTOFL
 70
     0
  9
$DIMTVP
 40
0.0
  9
$DIMTIX
 70
     0
  9
$DIMSOXD
 70
     0
  9
$DIMSAH
 70
     0
  9
$DIMBLK1
  1

  9
$DIMBLK2
  1

  9
$DIMSTYLE
  2
Standard
  9
$DIMCLRD
 70
     0
  9
$DIMCLRE
 70
     0
  9
$DIMCLRT
 70
     0
  9
$DIMTFAC
 40
1.0
  9
$DIMGAP
 40
0.09
  9
$DIMJUST
 70
     0
  9
$DIMSD1
 70
     0
  9
$DIMSD2
 70
     0
  9
$DIMTOLJ
 70
     1
  9
$DIMTZIN
 70
     0
  9
$DIMALTZ
 70
     0
  9
$DIMALTTZ
 70
     0
  9
$DIMUPT
 70
     0
  9
$DIMDEC
 70
     4
  9
$DIMTDEC
 70
     4
  9
$DIMALTU
 70
     2
  9
$DIMALTTD
 70
     2
  9
$DIMTXSTY
  7
Standard
  9
$DIMAUNIT
 70
     0
  9
$DIMADEC
 70
     0
  9
$DIMALTRND
 40
0.0
  9
$DIMAZIN
 70
     0
  9
$DIMDSEP
 70
    46
  9
$DIMATFIT
 70
     3
  9
$DIMFRAC
 70
     0
  9
$DIMLDRBLK
  1

  9
$DIMLUNIT
 70
     2
  9
$DIMLWD
 70
    -2
  9
$DIMLWE
 70
    -2
  9
$DIMTMOVE
 70
     0
  9
$LUNITS
 70
     2
  9
$LUPREC
 70
     4
  9
$SKETCHINC
 40
0.1
  9
$FILLETRAD
 40
0.5
  9
$AUNITS
 70
     0
  9
$AUPREC
 70
     0
  9
$MENU
  1
.
  9
$ELEVATION
 40
0.0
  9
$PELEVATION
 40
0.0
  9
$THICKNESS
 40
0.0
  9
$LIMCHECK
 70
     0
  9
$CHAMFERA
 40
0.0
  9
$CHAMFERB
 40
0.0
  9
$CHAMFERC
 40
0.0
  9
$CHAMFERD
 40
0.0
  9
$SKPOLY
 70
     0
  9
$TDCREATE
 40
2458030.413287049
  9
$TDUCREATE
 40
2458030.329953715
  9
$TDUPDATE
 40
2458030.413287234
  9
$TDUUPDATE
 40
2458030.329953901
  9
$TDINDWG
 40
0.0000000116
  9
$TDUSRTIMER
 40
0.0000000116
  9
$USRTIMER
 70
     1
  9
$ANGBASE
 50
0.0
  9
$ANGDIR
 70
     0
  9
$PDMODE
 70
     0
  9
$PDSIZE
 40
0.0
  9
$PLINEWID
 40
0.0
  9
$SPLFRAME
 70
     0
  9
$SPLINETYPE
 70
     6
  9
$SPLINESEGS
 70
     8
  9
$HANDSEED
  5
239
  9
$SURFTAB1
 70
     6
  9
$SURFTAB2
 70
     6
  9
$SURFTYPE
 70
     6
  9
$SURFU
 70
     6
  9
$SURFV
 70
     6
  9
$UCSBASE
  2

  9
$UCSNAME
  2

  9
$UCSORG
 10
0.0
 20
0.0
 30
0.0
  9
$UCSXDIR
 10
1.0
 20
0.0
 30
0.0
  9
$UCSYDIR
 10
0.0
 20
1.0
 30
0.0
  9
$UCSORTHOREF
  2

  9
$UCSORTHOVIEW
 70
     0
  9
$UCSORGTOP
 10
0.0
 20
0.0
 30
0.0
  9
$UCSORGBOTTOM
 10
0.0
 20
0.0
 30
0.0
  9
$UCSORGLEFT
 10
0.0
 20
0.0
 30
0.0
  9
$UCSORGRIGHT
 10
0.0
 20
0.0
 30
0.0
  9
$UCSORGFRONT
 10
0.0
 20
0.0
 30
0.0
  9
$UCSORGBACK
 10
0.0
 20
0.0
 30
0.0
  9
$PUCSBASE
  2

  9
$PUCSNAME
  2

  9
$PUCSORG
 10
0.0
 20
0.0
 30
0.0
  9
$PUCSXDIR
 10
1.0
 20
0.0
 30
0.0
  9
$PUCSYDIR
 10
0.0
 20
1.0
 30
0.0
  9
$PUCSORTHOREF
  2

  9
$PUCSORTHOVIEW
 70
     0
  9
$PUCSORGTOP
 10
0.0
 20
0.0
 30
0.0
  9
$PUCSORGBOTTOM
 10
0.0
 20
0.0
 30
0.0
  9
$PUCSORGLEFT
 10
0.0
 20
0.0
 30
0.0
  9
$PUCSORGRIGHT
 10
0.0
 20
0.0
 30
0.0
  9
$PUCSORGFRONT
 10
0.0
 20
0.0
 30
0.0
  9
$PUCSORGBACK
 10
0.0
 20
0.0
 30
0.0
  9
$USERI1
 70
     0
  9
$USERI2
 70
     0
  9
$USERI3
 70
     0
  9
$USERI4
 70
     0
  9
$USERI5
 70
     0
  9
$USERR1
 40
19.0
  9
$USERR2
 40
0.0
  9
$USERR3
 40
0.0
  9
$USERR4
 40
0.0
  9
$USERR5
 40
0.0
  9
$WORLDVIEW
 70
     1
  9
$SHADEDGE
 70
     3
  9
$SHADEDIF
 70
    70
  9
$TILEMODE
 70
     1
  9
$MAXACTVP
 70
    64
  9
$PINSBASE
 10
0.0
 20
0.0
 30
0.0
  9
$PLIMCHECK
 70
     0
  9
$PEXTMIN
 10
1.00000000000000E+20
 20
1.00000000000000E+20
 30
1.00000000000000E+20
  9
$PEXTMAX
 10
-1.00000000000000E+20
 20
-1.00000000000000E+20
 30
-1.00000000000000E+20
  9
$PLIMMIN
 10
0.0
 20
0.0
  9
$PLIMMAX
 10
12.0
 20
9.0
  9
$UNITMODE
 70
     0
  9
$VISRETAIN
 70
     1
  9
$PLINEGEN
 70
     0
  9
$PSLTSCALE
 70
     1
  9
$TREEDEPTH
 70
  3020
  9
$CMLSTYLE
  2
Standard
  9
$CMLJUST
 70
     0
  9
$CMLSCALE
 40
1.0
  9
$PROXYGRAPHICS
 70
     1
  9
$MEASUREMENT
 70
     1
  9
$CELWEIGHT
370
    -1
  9
$ENDCAPS
280
     0
  9
$JOINSTYLE
280
     0
  9
$LWDISPLAY
290
     0
  9
$INSUNITS
 70
     4
  9
$HYPERLINKBASE
  1

  9
$STYLESHEET
  1

  9
$XEDIT
290
     1
  9
$CEPSNTYPE
380
     0
  9
$PSTYLEMODE
290
     1
  9
$FINGERPRINTGUID
  2
{65C81035-1C72-4E81-8E65-D0D478F646C3}
  9
$VERSIONGUID
  2
{FAEB1C32-E019-11D5-929B-00C0DF256EC4}
  9
$EXTNAMES
290
     1
  9
$PSVPSCALE
 40
0.0
  9
$OLESTARTUP
290
     0
  0
ENDSEC
  0
SECTION
  2
CLASSES
  0
CLASS
  1
ACDBDICTIONARYWDFLT
  2
AcDbDictionaryWithDefault
  3
ObjectDBX Classes
 90
        0
280
     0
281
     0
  0
CLASS
  1
VISUALSTYLE
  2
AcDbVisualStyle
  3
ObjectDBX Classes
 90
     4095
280
     0
281
     0
  0
CLASS
  1
MATERIAL
  2
AcDbMaterial
  3
ObjectDBX Classes
 90
     1153
280
     0
281
     0
  0
CLASS
  1
SCALE
  2
AcDbScale
  3
ObjectDBX Classes
 90
     1153
280
     0
281
     0
  0
CLASS
  1
SUN
  2
AcDbSun
  3
SCENEOE
 90
     1153
280
     0
281
     0
  0
CLASS
  1
DICTIONARYVAR
  2
AcDbDictionaryVar
  3
ObjectDBX Classes
 90
        0
280
     0
281
     0
  0
CLASS
  1
ACDBPLACEHOLDER
  2
AcDbPlaceHolder
  3
ObjectDBX Classes
 90
        0
280
     0
281
     0
  0
CLASS
  1
LAYOUT
  2
AcDbLayout
  3
ObjectDBX Classes
 90
        0
280
     0
281
     0
  0
ENDSEC
  0
SECTION
  2
TABLES
  0
TABLE
  2
VPORT
  5
8
330
0
100
AcDbSymbolTable
 70
     1
  0
VPORT
  5
29
330
8
100
AcDbSymbolTableRecord
100
AcDbViewportTableRecord
  2
*Active
 70
     0
 10
0.0
 20
0.0
 11
1.0
 21
1.0
 12
-52.49999999999997
 22
74.25000000000006
 13
0.0
 23
0.0
 14
0.5
 24
0.5
 15
0.5
 25
0.5
 16
0.0
 26
0.0
 36
1.0
 17
0.0
 27
0.0
 37
0.0
 40
163.3500000000001
 41
1.60267857142857
 42
50.0
 43
0.0
 44
0.0
 50
0.0
 51
0.0
 71
     0
 72
   100
 73
     1
 74
     3
 75
     0
 76
     0
 77
     0
 78
     0
281
     0
 65
     1
110
0.0
120
0.0
130
0.0
111
1.0
121
0.0
131
0.0
112
0.0
122
1.0
132
0.0
 79
     0
146
0.0
  0
ENDTAB
  0
TABLE
  2
LTYPE
  5
5
330
0
100
AcDbSymbolTable
 70
     8
  0
LTYPE
  5
14
330
5
100
AcDbSymbolTableRecord
100
AcDbLinetypeTableRecord
  2
ByBlock
 70
     0
  3

 72
    65
 73
     0
 40
0.0
  0
LTYPE
  5
15
330
5
100
AcDbSymbolTableRecord
100
AcDbLinetypeTableRecord
  2
ByLayer
 70
     0
  3

 72
    65
 73
     0
 40
0.0
  0
LTYPE
  5
16
330
5
100
AcDbSymbolTableRecord
100
AcDbLinetypeTableRecord
  2
Continuous
 70
     0
  3
Solid line
 72
    65
 73
     0
 40
0.0
  0
LTYPE
  5
6A
330
5
100
AcDbSymbolTableRecord
100
AcDbLinetypeTableRecord
  2
DASHED
 70
     0
  3
Dashed
 72
    65
 73
     2
 40
15.0
 49
7.0
 74
     0
 49
-8.0
 74
     0
  0
LTYPE
  5
6B
330
5
100
AcDbSymbolTableRecord
100
AcDbLinetypeTableRecord
  2
DOTTED
 70
     0
  3
Dotted
 72
    65
 73
     2
 40
1.0
 49
0.0
 74
     0
 49
-1.0
 74
     0
  0
LTYPE
  5
6C
330
5
100
AcDbSymbolTableRecord
100
AcDbLinetypeTableRecord
  2
DOT_CENTER
 70
     0
  3
Dot_Center
 72
    65
 73
     4
 40
14.0
 49
12.0
 74
     0
 49
-1.0
 74
     0
 49
0.0
 74
     0
 49
-1.0
 74
     0
  0
LTYPE
  5
6D
330
5
100
AcDbSymbolTableRecord
100
AcDbLinetypeTableRecord
  2
LONG_DASHED
 70
     0
  3
Long_Dashed
 72
    65
 73
     2
 40
15.0
 49
10.0
 74
     0
 49
-5.0
 74
     0
  0
LTYPE
  5
6E
330
5
100
AcDbSymbolTableRecord
100
AcDbLinetypeTableRecord
  2
DASH_CENTER
 70
     0
  3
Dash_Center
 72
    65
 73
     4
 40
14.0
 49
11.0
 74
     0
 49
-1.0
 74
     0
 49
1.0
 74
     0
 49
-1.0
 74
     0
  0
LTYPE
  5
6F
330
5
100
AcDbSymbolTableRecord
100
AcDbLinetypeTableRecord
  2
PHANTOM
 70
     0
  3
Phantom
 72
    65
 73
     6
 40
13.0
 49
10.0
 74
     0
 49
-1.0
 74
     0
 49
0.0
 74
     0
 49
-1.0
 74
     0
 49
0.0
 74
     0
 49
-1.0
 74
     0
  0
LTYPE
  5
70
330
5
100
AcDbSymbolTableRecord
100
AcDbLinetypeTableRecord
  2
CENTER_DASH_DASH
 70
     0
  3
Center_Dash_Dash
 72
    65
 73
     6
 40
14.0
 49
9.0
 74
     0
 49
-1.0
 74
     0
 49
1.0
 74
     0
 49
-1.0
 74
     0
 49
1.0
 74
     0
 49
-1.0
 74
     0
  0
ENDTAB
  0
TABLE
  2
LAYER
  5
2
330
0
100
AcDbSymbolTable
 70
     2
  0
LAYER
  5
10
330
2
100
AcDbSymbolTableRecord
100
AcDbLayerTableRecord
  2
0
 70
     0
 62
     7
  6
Continuous
370
    -3
390
F
  0
LAYER
  5
71
330
2
100
AcDbSymbolTableRecord
100
AcDbLayerTableRecord
  2
1
 70
     0
 62
     7
  6
Continuous
370
    -3
390
F
  0
ENDTAB
  0
TABLE
  2
STYLE
  5
3
330
0
100
AcDbSymbolTable
 70
     4
  0
STYLE
  5
11
330
3
100
AcDbSymbolTableRecord
100
AcDbTextStyleTableRecord
  2
Standard
 70
     0
 40
0.0
 41
1.0
 50
0.0
 71
     0
 42
0.2
  3
txt
  4

  0
STYLE
  5
1AD
330
3
100
AcDbSymbolTableRecord
100
AcDbTextStyleTableRecord
  2
CONVERTER_11
 70
     0
 40
0.0
 41
1.38
 50
0.0
 71
     0
 42
0.2
  3
ARIAL.TTF
  4

  0
STYLE
  5
1AF
330
3
100
AcDbSymbolTableRecord
100
AcDbTextStyleTableRecord
  2
CONVERTER_12
 70
     0
 40
0.0
 41
1.2
 50
0.0
 71
     0
 42
0.2
  3
ARIAL.TTF
  4

  0
STYLE
  5
1C0
330
3
100
AcDbSymbolTableRecord
100
AcDbTextStyleTableRecord
  2
CONVERTER_13
 70
     0
 40
0.0
 41
0.95
 50
0.0
 71
     0
 42
0.2
  3
simplex.shx
  4

  0
ENDTAB
  0
TABLE
  2
VIEW
  5
6
330
0
100
AcDbSymbolTable
 70
     0
  0
ENDTAB
  0
TABLE
  2
UCS
  5
7
330
0
100
AcDbSymbolTable
 70
     0
  0
ENDTAB
  0
TABLE
  2
APPID
  5
9
330
0
100
AcDbSymbolTable
 70
     1
  0
APPID
  5
12
330
9
100
AcDbSymbolTableRecord
100
AcDbRegAppTableRecord
  2
ACAD
 70
     0
  0
ENDTAB
  0
TABLE
  2
DIMSTYLE
  5
A
330
0
100
AcDbSymbolTable
 70
     6
100
AcDbDimStyleTable
  0
DIMSTYLE
105
27
330
A
100
AcDbSymbolTableRecord
100
AcDbDimStyleTableRecord
  2
Standard
 70
     0
178
     0
340
11
  0
DIMSTYLE
105
1C4
102
{ACAD_REACTORS
330
1C5
102
}
330
A
100
AcDbSymbolTableRecord
100
AcDbDimStyleTableRecord
  2
ME10_DIM_10
 70
     0
  3
ø<>
 41
1.5
 42
0.25
 44
0.5
 73
     0
 74
     0
 77
     1
 78
     8
140
1.5
147
1.0
172
     1
173
     1
174
     1
175
     1
176
     7
177
     7
271
     2
178
     7
271
     2
340
1C0
  0
DIMSTYLE
105
1D1
102
{ACAD_REACTORS
330
1D2
102
}
330
A
100
AcDbSymbolTableRecord
100
AcDbDimStyleTableRecord
  2
ME10_DIM_11
 70
     0
  3
ø<>
 41
1.5
 42
0.25
 44
0.5
 73
     0
 74
     0
 77
     1
 78
     8
140
1.5
147
1.0
172
     1
173
     1
174
     1
175
     1
176
     7
177
     7
271
     2
178
     7
271
     2
340
1C0
  0
DIMSTYLE
105
1DC
102
{ACAD_REACTORS
330
1DD
102
}
330
A
100
AcDbSymbolTableRecord
100
AcDbDimStyleTableRecord
  2
ME10_DIM_12
 70
     0
 41
1.5
 42
0.25
 44
0.5
 73
     0
 74
     0
 77
     1
 78
     8
140
1.5
147
1.0
172
     1
173
     1
174
     1
175
     1
176
     7
177
     7
271
     2
178
     7
271
     2
340
1C0
  0
DIMSTYLE
105
1E7
102
{ACAD_REACTORS
330
1E8
102
}
330
A
100
AcDbSymbolTableRecord
100
AcDbDimStyleTableRecord
  2
ME10_DIM_13
 70
     0
 41
1.5
 42
0.25
 44
0.5
 73
     0
 74
     0
 77
     1
 78
     8
140
1.5
147
1.0
172
     1
173
     1
174
     1
175
     1
176
     7
177
     7
271
     2
178
     7
271
     2
340
1C0
  0
DIMSTYLE
105
1F3
102
{ACAD_REACTORS
330
1F4
102
}
330
A
100
AcDbSymbolTableRecord
100
AcDbDimStyleTableRecord
  2
ME10_DIM_14
 70
     0
  3
min.<>
 41
1.5
 42
0.25
 44
0.5
 77
     1
 78
     8
140
1.5
147
1.0
172
     1
173
     1
174
     1
175
     1
176
     7
177
     7
271
     2
178
     7
271
     2
340
1C0
  0
ENDTAB
  0
TABLE
  2
BLOCK_RECORD
  5
1
330
0
100
AcDbSymbolTable
 70
     8
  0
BLOCK_RECORD
  5
1F
330
1
100
AcDbSymbolTableRecord
100
AcDbBlockTableRecord
  2
*Model_Space
340
22
  0
BLOCK_RECORD
  5
1B
330
1
100
AcDbSymbolTableRecord
100
AcDbBlockTableRecord
  2
*Paper_Space
340
1E
  0
BLOCK_RECORD
  5
23
330
1
100
AcDbSymbolTableRecord
100
AcDbBlockTableRecord
  2
*Paper_Space0
340
26
  0
BLOCK_RECORD
  5
72
330
1
100
AcDbSymbolTableRecord
100
AcDbBlockTableRecord
  2
_dummy_frame__1
340
0
102
{BLKREFS
331
78
102
}
  0
BLOCK_RECORD
  5
75
330
1
100
AcDbSymbolTableRecord
100
AcDbBlockTableRecord
  2
_dummy_frame__2
340
0
102
{BLKREFS
331
79
102
}
  0
BLOCK_RECORD
  5
1B8
330
1
100
AcDbSymbolTableRecord
100
AcDbBlockTableRecord
  2
*D3
340
0
  0
BLOCK_RECORD
  5
1C6
330
1
100
AcDbSymbolTableRecord
100
AcDbBlockTableRecord
  2
*D4
340
0
  0
BLOCK_RECORD
  5
1D3
330
1
100
AcDbSymbolTableRecord
100
AcDbBlockTableRecord
  2
*D5
340
0
  0
BLOCK_RECORD
  5
1DE
330
1
100
AcDbSymbolTableRecord
100
AcDbBlockTableRecord
  2
*D6
340
0
  0
BLOCK_RECORD
  5
1E9
330
1
100
AcDbSymbolTableRecord
100
AcDbBlockTableRecord
  2
*D7
340
0
  0
ENDTAB
  0
ENDSEC
  0
SECTION
  2
BLOCKS
  0
BLOCK
  5
20
330
1F
100
AcDbEntity
  8
0
100
AcDbBlockBegin
  2
*Model_Space
 70
     0
 10
0.0
 20
0.0
 30
0.0
  3
*Model_Space
  1
*Model_Space
  0
ENDBLK
  5
21
330
1F
100
AcDbEntity
  8
0
100
AcDbBlockEnd
  0
BLOCK
  5
1C
330
1B
100
AcDbEntity
 67
     1
  8
0
100
AcDbBlockBegin
  2
*Paper_Space
 70
     0
 10
0.0
 20
0.0
 30
0.0
  3
*Paper_Space
  1
*Paper_Space
  0
ENDBLK
  5
1D
330
1B
100
AcDbEntity
 67
     1
  8
0
100
AcDbBlockEnd
  0
BLOCK
  5
24
330
23
100
AcDbEntity
  8
0
100
AcDbBlockBegin
  2
*Paper_Space0
 70
     0
 10
0.0
 20
0.0
 30
0.0
  3
*Paper_Space0
  1
*Paper_Space0
  0
ENDBLK
  5
25
330
23
100
AcDbEntity
  8
0
100
AcDbBlockEnd
  0
BLOCK
  5
73
330
72
100
AcDbEntity
  8
0
100
AcDbBlockBegin
  2
_dummy_frame__1
 70
     0
 10
-132.047873128126
 20
57.00353141877304
 30
0.0
  3
_dummy_frame__1
  1
_dummy_frame__1
  0
POINT
  5
7A
330
72
100
AcDbEntity
  8
1
 62
     7
 60
     1
100
AcDbPoint
 10
-132.047873128126
 20
57.00353141877304
 30
0.0
  0
ENDBLK
  5
74
330
72
100
AcDbEntity
  8
0
100
AcDbBlockEnd
  0
BLOCK
  5
76
330
75
100
AcDbEntity
  8
0
100
AcDbBlockBegin
  2
_dummy_frame__2
 70
     0
 10
-129.5491047377992
 20
52.64286539699544
 30
0.0
  3
_dummy_frame__2
  1
_dummy_frame__2
  0
POINT
  5
7B
330
75
100
AcDbEntity
  8
1
 62
     7
 60
     1
100
AcDbPoint
 10
-129.5491047377992
 20
52.64286539699544
 30
0.0
  0
ENDBLK
  5
77
330
75
100
AcDbEntity
  8
0
100
AcDbBlockEnd
  0
BLOCK
  5
1C2
330
1B8
100
AcDbEntity
  8
0
100
AcDbBlockBegin
  2
*D3
 70
     1
 10
0.0
 20
0.0
 30
0.0
  3
*D3
  1
*D3
  0
LINE
  5
1B9
330
1B8
100
AcDbEntity
  8
1
  6
Continuous
 62
     7
100
AcDbLine
 10
-53.1755380861206
 20
101.343404817295
 30
0.0
 11
-50.1755380861206
 21
101.343404817295
 31
0.0
  0
LINE
  5
1BA
330
1B8
100
AcDbEntity
  8
1
  6
Continuous
 62
     7
100
AcDbLine
 10
-50.1755380861206
 20
101.343404817295
 30
0.0
 11
-46.67553808612062
 21
101.343404817295
 31
0.0
  0
LINE
  5
1BB
330
1B8
100
AcDbEntity
  8
1
  6
Continuous
 62
     7
100
AcDbLine
 10
-46.67553808612062
 20
101.343404817295
 30
0.0
 11
-43.67553808612062
 21
101.343404817295
 31
0.0
  0
LINE
  5
1BC
330
1B8
100
AcDbEntity
  8
1
  6
Continuous
 62
     7
100
AcDbLine
 10
-50.1755380861206
 20
98.5522952695622
 30
0.0
 11
-50.1755380861206
 21
101.843404817295
 31
0.0
  0
LINE
  5
1BD
330
1B8
100
AcDbEntity
  8
1
  6
Continuous
 62
     7
100
AcDbLine
 10
-46.67553808612062
 20
98.55229526956217
 30
0.0
 11
-46.67553808612062
 21
101.843404817295
 31
0.0
  0
SOLID
  5
1BE
330
1B8
100
AcDbEntity
  8
1
 62
     7
100
AcDbTrace
 10
-51.6755380861206
 20
101.1459260709139
 30
0.0
 11
-51.6755380861206
 21
101.5408835636761
 31
0.0
 12
-50.1755380861206
 22
101.343404817295
 32
0.0
 13
-50.1755380861206
 23
101.343404817295
 33
0.0
  0
SOLID
  5
1BF
330
1B8
100
AcDbEntity
  8
1
 62
     7
100
AcDbTrace
 10
-45.17553808612062
 20
101.5408835636761
 30
0.0
 11
-45.17553808612062
 21
101.1459260709139
 31
0.0
 12
-46.67553808612062
 22
101.343404817295
 32
0.0
 13
-46.67553808612062
 23
101.343404817295
 33
0.0
  0
MTEXT
  5
1C1
330
1B8
100
AcDbEntity
  8
1
 62
     7
100
AcDbMText
 10
-50.218038086117
 20
102.4934018356909
 30
0.0
 40
1.5
 41
0.0
 71
     7
 72
     1
  1
\C7;\U+00f8\C7;3,5
  7
CONVERTER_13
 11
0.9999999999970619
 21
2.424068405545306E-6
 31
0.0
 73
     1
 44
0.60024009603842
  0
ENDBLK
  5
1C3
330
1B8
100
AcDbEntity
  8
0
100
AcDbBlockEnd
  0
BLOCK
  5
1CF
330
1C6
100
AcDbEntity
  8
0
100
AcDbBlockBegin
  2
*D4
 70
     1
 10
0.0
 20
0.0
 30
0.0
  3
*D4
  1
*D4
  0
LINE
  5
1C7
330
1C6
100
AcDbEntity
  8
1
  6
Continuous
 62
     7
100
AcDbLine
 10
-47.65053808612087
 20
62.65043562439503
 30
0.0
 11
-44.65053808612086
 21
62.65043562439503
 31
0.0
  0
LINE
  5
1C8
330
1C6
100
AcDbEntity
  8
1
  6
Continuous
 62
     7
100
AcDbLine
 10
-49.20053808612088
 20
62.65043562439503
 30
0.0
 11
-47.65053808612087
 21
62.65043562439503
 31
0.0
  0
LINE
  5
1C9
330
1C6
100
AcDbEntity
  8
1
  6
Continuous
 62
     7
100
AcDbLine
 10
-57.53389399806404
 20
62.65043562439503
 30
0.0
 11
-49.20053808612088
 21
62.65043562439503
 31
0.0
  0
LINE
  5
1CA
330
1C6
100
AcDbEntity
  8
1
  6
Continuous
 62
     7
100
AcDbLine
 10
-47.65053808612087
 20
68.25229526956319
 30
0.0
 11
-47.65053808612087
 21
62.15043562439503
 31
0.0
  0
LINE
  5
1CB
330
1C6
100
AcDbEntity
  8
1
  6
Continuous
 62
     7
100
AcDbLine
 10
-49.20053808612088
 20
68.25229526956319
 30
0.0
 11
-49.20053808612088
 21
62.15043562439503
 31
0.0
  0
SOLID
  5
1CC
330
1C6
100
AcDbEntity
  8
1
 62
     7
100
AcDbTrace
 10
-50.70053808612088
 20
62.45295687801394
 30
0.0
 11
-50.70053808612088
 21
62.84791437077612
 31
0.0
 12
-49.20053808612088
 22
62.65043562439503
 32
0.0
 13
-49.20053808612088
 23
62.65043562439503
 33
0.0
  0
SOLID
  5
1CD
330
1C6
100
AcDbEntity
  8
1
 62
     7
100
AcDbTrace
 10
-46.15053808612087
 20
62.84791437077612
 30
0.0
 11
-46.15053808612087
 21
62.45295687801394
 31
0.0
 12
-47.65053808612087
 22
62.65043562439503
 32
0.0
 13
-47.65053808612087
 23
62.65043562439503
 33
0.0
  0
MTEXT
  5
1CE
330
1C6
100
AcDbEntity
  8
1
 62
     7
100
AcDbMText
 10
-57.11389399806043
 20
63.80043264279089
 30
0.0
 40
1.5
 41
0.0
 71
     7
 72
     1
  1
\C7;\U+00f8\C7;1,55
  7
CONVERTER_13
 11
0.9999999999970619
 21
2.424068405545306E-6
 31
0.0
 73
     1
 44
0.60024009603842
  0
ENDBLK
  5
1D0
330
1C6
100
AcDbEntity
  8
0
100
AcDbBlockEnd
  0
BLOCK
  5
1DA
330
1D3
100
AcDbEntity
  8
0
100
AcDbBlockBegin
  2
*D5
 70
     1
 10
0.0
 20
0.0
 30
0.0
  3
*D5
  1
*D5
  0
LINE
  5
1D4
330
1D3
100
AcDbEntity
  8
1
  6
Continuous
 62
     7
100
AcDbLine
 10
-54.88531444839477
 20
83.70229526956322
 30
0.0
 11
-54.88531444839477
 21
68.50229526956319
 31
0.0
  0
LINE
  5
1D5
330
1D3
100
AcDbEntity
  8
1
  6
Continuous
 62
     7
100
AcDbLine
 10
-50.2567458740088
 20
83.70229526956322
 30
0.0
 11
-55.38531444839477
 21
83.70229526956322
 31
0.0
  0
LINE
  5
1D6
330
1D3
100
AcDbEntity
  8
1
  6
Continuous
 62
     7
100
AcDbLine
 10
-49.45053808612082
 20
68.50229526956319
 30
0.0
 11
-55.38531444839477
 21
68.50229526956319
 31
0.0
  0
SOLID
  5
1D7
330
1D3
100
AcDbEntity
  8
1
 62
     7
100
AcDbTrace
 10
-54.68783570201367
 20
82.20229526956322
 30
0.0
 11
-55.08279319477586
 21
82.20229526956322
 31
0.0
 12
-54.88531444839477
 22
83.70229526956322
 32
0.0
 13
-54.88531444839477
 23
83.70229526956322
 33
0.0
  0
SOLID
  5
1D8
330
1D3
100
AcDbEntity
  8
1
 62
     7
100
AcDbTrace
 10
-55.08279319477586
 20
70.00229526956319
 30
0.0
 11
-54.68783570201367
 21
70.00229526956319
 31
0.0
 12
-54.88531444839477
 22
68.50229526956319
 32
0.0
 13
-54.88531444839477
 23
68.50229526956319
 33
0.0
  0
MTEXT
  5
1D9
330
1D3
100
AcDbEntity
  8
1
 62
     7
100
AcDbMText
 10
-56.03531444839477
 20
74.2647952695632
 30
0.0
 40
1.5
 41
0.0
 71
     7
 72
     1
  1
15,2
  7
CONVERTER_13
 11
0.0
 21
1.0
 31
0.0
 73
     1
 44
0.60024009603842
  0
ENDBLK
  5
1DB
330
1D3
100
AcDbEntity
  8
0
100
AcDbBlockEnd
  0
BLOCK
  5
1E5
330
1DE
100
AcDbEntity
  8
0
100
AcDbBlockBegin
  2
*D6
 70
     1
 10
0.0
 20
0.0
 30
0.0
  3
*D6
  1
*D6
  0
LINE
  5
1DF
330
1DE
100
AcDbEntity
  8
1
  6
Continuous
 62
     7
100
AcDbLine
 10
-38.63570378023998
 20
98.3022952695622
 30
0.0
 11
-38.63570378023998
 21
68.50229526956319
 31
0.0
  0
LINE
  5
1E0
330
1DE
100
AcDbEntity
  8
1
  6
Continuous
 62
     7
100
AcDbLine
 10
-46.42553808612058
 20
98.3022952695622
 30
0.0
 11
-38.13570378023998
 21
98.3022952695622
 31
0.0
  0
LINE
  5
1E1
330
1DE
100
AcDbEntity
  8
1
  6
Continuous
 62
     7
100
AcDbLine
 10
-47.40053808612083
 20
68.50229526956319
 30
0.0
 11
-38.13570378023998
 21
68.50229526956319
 31
0.0
  0
SOLID
  5
1E2
330
1DE
100
AcDbEntity
  8
1
 62
     7
100
AcDbTrace
 10
-38.43822503385888
 20
96.8022952695622
 30
0.0
 11
-38.83318252662107
 21
96.8022952695622
 31
0.0
 12
-38.63570378023998
 22
98.3022952695622
 32
0.0
 13
-38.63570378023998
 23
98.3022952695622
 33
0.0
  0
SOLID
  5
1E3
330
1DE
100
AcDbEntity
  8
1
 62
     7
100
AcDbTrace
 10
-38.83318252662107
 20
70.00229526956319
 30
0.0
 11
-38.43822503385888
 21
70.00229526956319
 31
0.0
 12
-38.63570378023998
 22
68.50229526956319
 32
0.0
 13
-38.63570378023998
 23
68.50229526956319
 33
0.0
  0
MTEXT
  5
1E4
330
1DE
100
AcDbEntity
  8
1
 62
     7
100
AcDbMText
 10
-39.78570378023998
 20
81.3397952695627
 30
0.0
 40
1.5
 41
0.0
 71
     7
 72
     1
  1
29,8
  7
CONVERTER_13
 11
0.0
 21
1.0
 31
0.0
 73
     1
 44
0.60024009603842
  0
ENDBLK
  5
1E6
330
1DE
100
AcDbEntity
  8
0
100
AcDbBlockEnd
  0
BLOCK
  5
1F1
330
1E9
100
AcDbEntity
  8
0
100
AcDbBlockBegin
  2
*D7
 70
     1
 10
0.0
 20
0.0
 30
0.0
  3
*D7
  1
*D7
  0
LINE
  5
1EA
330
1E9
100
AcDbEntity
  8
1
  6
Continuous
 62
     7
100
AcDbLine
 10
-73.41922588182857
 20
114.8680281613771
 30
0.0
 11
-73.41922588182857
 21
107.1180281613771
 31
0.0
  0
LINE
  5
1EB
330
1E9
100
AcDbEntity
  8
1
  6
Continuous
 62
     7
100
AcDbLine
 10
-73.41922588182857
 20
126.1180281613771
 30
0.0
 11
-73.41922588182857
 21
118.3680281613771
 31
0.0
  0
LINE
  5
1EC
330
1E9
100
AcDbEntity
  8
1
  6
Continuous
 62
     7
100
AcDbLine
 10
-79.87329174230315
 20
107.1180281613771
 30
0.0
 11
-72.91922588182857
 21
107.1180281613771
 31
0.0
  0
LINE
  5
1ED
330
1E9
100
AcDbEntity
  8
1
  6
Continuous
 62
     7
100
AcDbLine
 10
-79.27329174230314
 20
126.1180281613771
 30
0.0
 11
-72.91922588182857
 21
126.1180281613771
 31
0.0
  0
SOLID
  5
1EE
330
1E9
100
AcDbEntity
  8
1
 62
     7
100
AcDbTrace
 10
-73.22174713544747
 20
124.6180281613771
 30
0.0
 11
-73.61670462820966
 21
124.6180281613771
 31
0.0
 12
-73.41922588182857
 22
126.1180281613771
 32
0.0
 13
-73.41922588182857
 23
126.1180281613771
 33
0.0
  0
SOLID
  5
1EF
330
1E9
100
AcDbEntity
  8
1
 62
     7
100
AcDbTrace
 10
-73.61670462820966
 20
108.6180281613771
 30
0.0
 11
-73.22174713544747
 21
108.6180281613771
 31
0.0
 12
-73.41922588182857
 22
107.1180281613771
 32
0.0
 13
-73.41922588182857
 23
107.1180281613771
 33
0.0
  0
MTEXT
  5
1F0
330
1E9
100
AcDbEntity
  8
1
 62
     7
100
AcDbMText
 10
-77.23297588181411
 20
115.8680162349605
 30
0.0
 40
1.5
 41
0.0
 71
     7
 72
     1
  1
\C7;min.\C7;19
  7
CONVERTER_13
 11
0.9999999999970619
 21
2.424068405545306E-6
 31
0.0
 73
     1
 44
0.60024009603842
  0
ENDBLK
  5
1F2
330
1E9
100
AcDbEntity
  8
0
100
AcDbBlockEnd
  0
ENDSEC
  0
SECTION
  2
ENTITIES
  0
INSERT
  5
78
330
1F
100
AcDbEntity
  8
1
100
AcDbBlockReference
  2
_dummy_frame__1
 10
-132.047873128126
 20
57.00353141877304
 30
0.0
  0
INSERT
  5
79
330
1F
100
AcDbEntity
  8
1
100
AcDbBlockReference
  2
_dummy_frame__2
 10
-129.5491047377992
 20
52.64286539699544
 30
0.0
  0
LINE
  5
7C
330
1F
100
AcDbEntity
  8
0
  6
Continuous
 62
     7
100
AcDbLine
 10
-18.70807588949454
 20
135.5217367892349
 30
0.0
 11
-25.42559031076675
 21
138.880493999871
 31
0.0
  0
LINE
  5
7D
330
1F
100
AcDbEntity
  8
0
  6
Continuous
 62
     7
100
AcDbLine
 10
-20.13915939509441
 20
132.6595697780352
 30
0.0
 11
-26.85667381636662
 21
136.0183269886713
 31
0.0
  0
LINE
  5
7E
330
1F
100
AcDbEntity
  8
0
  6
Continuous
 62
     7
100
AcDbLine
 10
-19.18805442367092
 20
132.6871325872609
 30
0.0
 11
-19.65507056464482
 21
132.9206406577479
 31
0.0
  0
LINE
  5
7F
330
1F
100
AcDbEntity
  8
0
  6
Continuous
 62
     7
100
AcDbLine
 10
-19.19819750732138
 20
132.6692565729238
 30
0.0
 11
-19.14423783459129
 21
132.7643542687103
 31
0.0
  0
LINE
  5
80
330
1F
100
AcDbEntity
  8
0
  6
Continuous
 62
     7
100
AcDbLine
 10
-19.98263463666847
 20
132.9726192948856
 30
0.0
 11
-19.69979192419383
 21
132.8311979386483
 31
0.0
  0
LINE
  5
81
330
1F
100
AcDbEntity
  8
0
  6
Continuous
 62
     7
100
AcDbLine
 10
-27.40911793688272
 20
140.0399629112415
 30
0.0
 11
-25.35850827144176
 21
139.014658078521
 31
0.0
  0
LINE
  5
82
330
1F
100
AcDbEntity
  8
0
  6
Continuous
 62
     7
100
AcDbLine
 10
-28.97436552113257
 20
136.9094677427418
 30
0.0
 11
-26.92375585569161
 21
135.8841629100213
 31
0.0
  0
LINE
  5
83
330
1F
100
AcDbEntity
  8
0
  6
Continuous
 62
     7
100
AcDbLine
 10
-17.03281634867615
 20
133.2572170653125
 30
0.0
 11
-18.65916194540522
 21
134.070389863677
 31
0.0
  0
LINE
  5
84
330
1F
100
AcDbEntity
  8
0
  6
Continuous
 62
     7
100
AcDbLine
 10
-15.99803345129875
 20
133.6517575302475
 30
0.0
 11
-17.6558506893288
 21
134.9122416637522
 31
0.0
  0
LINE
  5
85
330
1F
100
AcDbEntity
  8
0
  6
Continuous
 62
     7
100
AcDbLine
 10
-16.84656158872259
 20
133.2274934615356
 30
0.0
 11
-16.99746100961683
 21
133.3029431719827
 31
0.0
  0
LINE
  5
86
330
1F
100
AcDbEntity
  8
0
  6
Continuous
 62
     7
100
AcDbLine
 10
-17.03281634867615
 20
133.2572170653125
 30
0.0
 11
-18.52193051669603
 21
134.3956211010554
 31
0.0
  0
LINE
  5
87
330
1F
100
AcDbEntity
  8
0
  6
Continuous
 62
     7
100
AcDbLine
 10
-16.84656158872259
 20
133.2274934615356
 30
0.0
 11
-18.50437882675278
 21
134.4879775950404
 31
0.0
  0
LINE
  5
88
330
1F
100
AcDbEntity
  8
0
  6
Continuous
 62
     7
100
AcDbLine
 10
-14.69267063891887
 20
133.1227222678847
 30
0.0
 11
-14.19769589208831
 21
132.8752348944694
 31
0.0
  0
LINE
  5
89
330
1F
100
AcDbEntity
  8
0
  6
Continuous
 62
     7
100
AcDbLine
 10
-10.32371199775066
 20
130.5469310512381
 30
0.0
 11
-8.48523436666564
 21
129.6276922356956
 31
0.0
  0
LINE
  5
8A
330
1F
100
AcDbEntity
  8
0
  6
Continuous
 62
     7
100
AcDbLine
 10
-16.03430150655485
 20
131.1102561287029
 30
0.0
 11
-16.92959198209012
 21
131.5579013664705
 31
0.0
  0
LINE
  5
8B
330
1F
100
AcDbEntity
  8
0
  6
Continuous
 62
     7
100
AcDbLine
 10
-17.23521029640155
 20
132.2087206975986
 30
0.0
 11
-17.38610971729578
 21
132.2841704080457
 31
0.0
  0
LINE
  5
8C
330
1F
100
AcDbEntity
  8
0
  6
Continuous
 62
     7
100
AcDbLine
 10
-16.8890231355556
 20
131.5376169432033
 30
0.0
 11
-18.80531523446983
 21
131.9871976914847
 31
0.0
  0
LINE
  5
8D
330
1F
100
AcDbEntity
  8
0
  6
Continuous
 62
     7
100
AcDbLine
 10
-17.23521029640155
 20
132.2087206975986
 30
0.0
 11
-19.19819750732138
 21
132.6692565729238
 31
0.0
  0
LINE
  5
8E
330
1F
100
AcDbEntity
  8
0
  6
Continuous
 62
     7
100
AcDbLine
 10
-17.43897574609919
 20
132.3642832115918
 30
0.0
 11
-19.14423783459129
 21
132.7643542687103
 31
0.0
  0
LINE
  5
8F
330
1F
100
AcDbEntity
  8
0
  6
Continuous
 62
     7
100
AcDbLine
 10
-14.3807905587049
 20
132.4693009005081
 30
0.0
 11
-14.21477610785301
 21
132.3896739878072
 31
0.0
  0
LINE
  5
90
330
1F
100
AcDbEntity
  8
0
  6
Continuous
 62
     7
100
AcDbLine
 10
-15.81070462766878
 20
130.8866542903849
 30
0.0
 11
-15.31572988083819
 21
130.6391669169696
 31
0.0
  0
LINE
  5
91
330
1F
100
AcDbEntity
  8
0
  6
Continuous
 62
     7
100
AcDbLine
 10
-14.8382881032917
 20
130.9035613231338
 30
0.0
 11
-14.53438730708014
 21
130.751610925028
 31
0.0
  0
LINE
  5
92
330
1F
100
AcDbEntity
  8
0
  6
Continuous
 62
     7
100
AcDbLine
 10
-14.21477610785301
 20
132.3896739878072
 30
0.0
 11
-13.99971514668864
 21
132.2731292268321
 31
0.0
  0
LINE
  5
93
330
1F
100
AcDbEntity
  8
0
  6
Continuous
 62
     7
100
AcDbLine
 10
-11.55082278454967
 20
131.0563479042492
 30
0.0
 11
-11.38480222425503
 21
130.9714703576259
 31
0.0
  0
LINE
  5
94
330
1F
100
AcDbEntity
  8
0
  6
Continuous
 62
     7
100
AcDbLine
 10
-12.97338254821945
 20
131.7666093659932
 30
0.0
 11
-12.58550672297794
 21
131.5660250149767
 31
0.0
  0
LINE
  5
95
330
1F
100
AcDbEntity
  8
0
  6
Continuous
 62
     7
100
AcDbLine
 10
-12.27865780532707
 20
131.4023222723401
 30
0.0
 11
-11.87837974153865
 21
131.2124615242571
 31
0.0
  0
LINE
  5
96
330
1F
100
AcDbEntity
  8
0
  6
Continuous
 62
     7
100
AcDbLine
 10
-13.67146662474276
 20
132.1228143886209
 30
0.0
 11
-13.29260645143025
 21
131.9195748792029
 31
0.0
  0
LINE
  5
97
330
1F
100
AcDbEntity
  8
0
  6
Continuous
 62
     7
100
AcDbLine
 10
-12.7249341451617
 20
129.854074992359
 30
0.0
 11
-12.41306301524664
 21
129.6909487791112
 31
0.0
  0
LINE
  5
98
330
1F
100
AcDbEntity
  8
0
  6
Continuous
 62
     7
100
AcDbLine
 10
-13.42407340966797
 20
130.1964539763219
 30
0.0
 11
-13.12020465750031
 21
130.0445196002381
 31
0.0
  0
LINE
  5
99
330
1F
100
AcDbEntity
  8
0
  6
Continuous
 62
     7
100
AcDbLine
 10
-14.13117422789027
 20
130.5500043854331
 30
0.0
 11
-13.82728111832479
 21
130.3980578306503
 31
0.0
  0
LINE
  5
9A
330
1F
100
AcDbEntity
  8
0
  6
Continuous
 62
     7
100
AcDbLine
 10
-10.66216198615626
 20
131.1074679415034
 30
0.0
 11
-10.41467461274097
 21
130.9837242547957
 31
0.0
  0
LINE
  5
9B
330
1F
100
AcDbEntity
  8
0
  6
Continuous
 62
     7
100
AcDbLine
 10
-11.78019597490616
 20
128.8713999640036
 30
0.0
 11
-11.53270860149087
 21
128.7476562772959
 31
0.0
  0
LINE
  5
9C
330
1F
100
AcDbEntity
  8
0
  6
Continuous
 62
     7
100
AcDbLine
 10
-11.12869646965061
 20
128.9369621074382
 30
0.0
 11
-9.29021883856556
 21
128.0177232918957
 31
0.0
  0
LINE
  5
9D
330
1F
100
AcDbEntity
  8
0
  6
Continuous
 62
     7
100
AcDbLine
 10
-8.54113606610316
 20
129.5158888368206
 30
0.0
 11
-6.98550114749274
 21
128.7380713775154
 31
0.0
  0
LINE
  5
9E
330
1F
100
AcDbEntity
  8
0
  6
Continuous
 62
     7
100
AcDbLine
 10
-9.23431713912807
 20
128.1295266907707
 30
0.0
 11
-7.67868222051767
 21
127.3517092314655
 31
0.0
  0
LINE
  5
9F
330
1F
100
AcDbEntity
  8
0
  6
Continuous
 62
     7
100
AcDbLine
 10
-15.00571190032683
 20
133.1674394997137
 30
0.0
 11
-16.04352515800609
 21
133.6863461285533
 31
0.0
  0
LINE
  5
A0
330
1F
100
AcDbEntity
  8
0
  6
Continuous
 62
     7
100
AcDbLine
 10
-17.38395414676863
 20
132.336772411884
 30
0.0
 11
-19.01029974345072
 21
133.1499452102676
 31
0.0
  0
LINE
  5
A1
330
1F
100
AcDbEntity
  8
0
  6
Continuous
 62
     7
100
AcDbLine
 10
-18.52193051669603
 20
134.3956211010554
 30
0.0
 11
-18.50437882675278
 21
134.4879775950404
 31
0.0
  0
LINE
  5
A2
330
1F
100
AcDbEntity
  8
0
  6
Continuous
 62
     7
100
AcDbLine
 10
-18.18401659048296
 20
134.7565918447917
 30
0.0
 11
-18.62647929499489
 21
134.9778231970477
 31
0.0
  0
LINE
  5
A3
330
1F
100
AcDbEntity
  8
0
  6
Continuous
 62
     7
100
AcDbLine
 10
-18.86460064791855
 20
135.2086872723854
 30
0.0
 11
-18.58175793544395
 21
135.0672659161481
 31
0.0
  0
LINE
  5
A4
330
1F
100
AcDbEntity
  8
0
  6
Continuous
 62
     7
100
AcDbLine
 10
-47.27553808612075
 20
79.7022952695622
 30
0.0
 11
-47.27590581272241
 21
81.35778768212822
 31
0.0
  0
LINE
  5
A5
330
1F
100
AcDbEntity
  8
0
  6
Continuous
 62
     7
100
AcDbLine
 10
-47.17553808612078
 20
79.7022952695622
 30
0.0
 11
-47.17553808612078
 21
79.0022952695622
 31
0.0
  0
LINE
  5
A6
330
1F
100
AcDbEntity
  8
0
  6
Continuous
 62
     7
100
AcDbLine
 10
-47.17553808612078
 20
79.7022952695622
 30
0.0
 11
-47.27553808612075
 21
79.7022952695622
 31
0.0
  0
LINE
  5
A7
330
1F
100
AcDbEntity
  8
0
  6
Continuous
 62
     7
100
AcDbLine
 10
-47.27553808612075
 20
79.7022952695622
 30
0.0
 11
-49.57553808612076
 21
79.70229526956221
 31
0.0
  0
LINE
  5
A8
330
1F
100
AcDbEntity
  8
0
  6
Continuous
 62
     7
100
AcDbLine
 10
-49.57553808612076
 20
79.70229526956221
 30
0.0
 11
-49.67553808612078
 21
79.70229526956221
 31
0.0
  0
LINE
  5
A9
330
1F
100
AcDbEntity
  8
0
  6
Continuous
 62
     7
100
AcDbLine
 10
-49.67553808612078
 20
79.70229526956221
 30
0.0
 11
-49.67553808612078
 21
79.00229526956223
 31
0.0
  0
LINE
  5
AA
330
1F
100
AcDbEntity
  8
0
  6
Continuous
 62
     7
100
AcDbLine
 10
-47.17553808612078
 20
79.0022952695622
 30
0.0
 11
-47.2755380861208
 21
79.0022952695622
 31
0.0
  0
LINE
  5
AB
330
1F
100
AcDbEntity
  8
0
  6
Continuous
 62
     7
100
AcDbLine
 10
-47.8429129269891
 20
79.00229526956176
 30
0.0
 11
-49.22553808612079
 21
79.00229526956221
 31
0.0
  0
LINE
  5
AC
330
1F
100
AcDbEntity
  8
0
  6
Continuous
 62
     7
100
AcDbLine
 10
-49.22553808612079
 20
79.00229526956221
 30
0.0
 11
-49.67553808612078
 21
79.00229526956223
 31
0.0
  0
LINE
  5
AD
330
1F
100
AcDbEntity
  8
0
  6
Continuous
 62
     7
100
AcDbLine
 10
-47.2755380861208
 20
79.0022952695622
 30
0.0
 11
-47.8429129269891
 21
79.00229526956176
 31
0.0
  0
LINE
  5
AE
330
1F
100
AcDbEntity
  8
0
  6
Continuous
 62
     7
100
AcDbLine
 10
-49.57553808612076
 20
79.70229526956221
 30
0.0
 11
-49.57517035951909
 21
81.35778764760522
 31
0.0
  0
LINE
  5
AF
330
1F
100
AcDbEntity
  8
0
  6
Continuous
 62
     7
100
AcDbLine
 10
-47.17553808612084
 20
74.00229526956319
 30
0.0
 11
-47.17553808612084
 21
73.65229526956318
 31
0.0
  0
LINE
  5
B0
330
1F
100
AcDbEntity
  8
0
  6
Continuous
 62
     7
100
AcDbLine
 10
-49.22553808612079
 20
75.44964133342818
 30
0.0
 11
-49.22553808612085
 21
74.75771922242244
 31
0.0
  0
LINE
  5
B1
330
1F
100
AcDbEntity
  8
0
  6
Continuous
 62
     7
100
AcDbLine
 10
-47.62553808612083
 20
75.74687147781603
 30
0.0
 11
-47.62553808612083
 21
75.05391659729591
 31
0.0
  0
LINE
  5
B2
330
1F
100
AcDbEntity
  8
0
  6
Continuous
 62
     7
100
AcDbLine
 10
-49.67553808612084
 20
74.00229526956322
 30
0.0
 11
-49.67553808612084
 21
73.65229526956323
 31
0.0
  0
LINE
  5
B3
330
1F
100
AcDbEntity
  8
0
  6
Continuous
 62
     7
100
AcDbLine
 10
-47.17553808612084
 20
73.65229526956318
 30
0.0
 11
-49.67553808612084
 21
73.65229526956323
 31
0.0
  0
LINE
  5
B4
330
1F
100
AcDbEntity
  8
0
  6
Continuous
 62
     7
100
AcDbLine
 10
-49.22553808612079
 20
76.4496419282163
 30
0.0
 11
-49.22553808612079
 21
75.75771900582427
 31
0.0
  0
LINE
  5
B5
330
1F
100
AcDbEntity
  8
0
  6
Continuous
 62
     7
100
AcDbLine
 10
-49.22553808612079
 20
77.44964103325218
 30
0.0
 11
-49.22553808612079
 21
76.75771895460558
 31
0.0
  0
LINE
  5
B6
330
1F
100
AcDbEntity
  8
0
  6
Continuous
 62
     7
100
AcDbLine
 10
-49.22553808612079
 20
79.00229526956221
 30
0.0
 11
-49.22553808612079
 21
78.75772491498456
 31
0.0
  0
LINE
  5
B7
330
1F
100
AcDbEntity
  8
0
  6
Continuous
 62
     7
100
AcDbLine
 10
-49.22553808612079
 20
78.44841029040931
 30
0.0
 11
-49.22553808612079
 21
77.75771908154117
 31
0.0
  0
LINE
  5
B8
330
1F
100
AcDbEntity
  8
0
  6
Continuous
 62
     7
100
AcDbLine
 10
-47.62553808612077
 20
78.74687132437782
 30
0.0
 11
-47.62553808612077
 21
78.05588951953054
 31
0.0
  0
LINE
  5
B9
330
1F
100
AcDbEntity
  8
0
  6
Continuous
 62
     7
100
AcDbLine
 10
-47.62553808612077
 20
76.74687147852417
 30
0.0
 11
-47.62553808612083
 21
76.05593922746449
 31
0.0
  0
LINE
  5
BA
330
1F
100
AcDbEntity
  8
0
  6
Continuous
 62
     7
100
AcDbLine
 10
-47.62553808612077
 20
77.74687147782818
 30
0.0
 11
-47.62553808612077
 21
77.05592817195742
 31
0.0
  0
LINE
  5
BB
330
1F
100
AcDbEntity
  8
0
  6
Continuous
 62
     7
100
AcDbLine
 10
-49.22553808612085
 20
74.00229526956322
 30
0.0
 11
-49.67553808612084
 21
74.00229526956322
 31
0.0
  0
LINE
  5
BC
330
1F
100
AcDbEntity
  8
0
  6
Continuous
 62
     7
100
AcDbLine
 10
-47.2755380861208
 20
74.0022952695622
 30
0.0
 11
-47.57553808612082
 21
74.00229526956319
 31
0.0
  0
LINE
  5
BD
330
1F
100
AcDbEntity
  8
0
  6
Continuous
 62
     7
100
AcDbLine
 10
-47.57553808612082
 20
74.00229526956319
 30
0.0
 11
-47.62553808612083
 21
74.00229526956319
 31
0.0
  0
LINE
  5
BE
330
1F
100
AcDbEntity
  8
0
  6
Continuous
 62
     7
100
AcDbLine
 10
-47.17553808612084
 20
74.00229526956319
 30
0.0
 11
-47.2755380861208
 21
74.0022952695622
 31
0.0
  0
LINE
  5
BF
330
1F
100
AcDbEntity
  8
0
  6
Continuous
 62
     7
100
AcDbLine
 10
-47.62553808612083
 20
74.00229526956319
 30
0.0
 11
-49.22553808612085
 21
74.00229526956322
 31
0.0
  0
LINE
  5
C0
330
1F
100
AcDbEntity
  8
0
  6
Continuous
 62
     7
100
AcDbLine
 10
-49.32553808612082
 20
73.3022952695632
 30
0.0
 11
-49.67553808612084
 21
73.65229526956323
 31
0.0
  0
LINE
  5
C1
330
1F
100
AcDbEntity
  8
0
  6
Continuous
 62
     7
100
AcDbLine
 10
-49.57517035951909
 20
81.5711916551881
 30
0.0
 11
-49.57553808612076
 21
83.8711916551881
 31
0.0
  0
LINE
  5
C2
330
1F
100
AcDbEntity
  8
0
  6
Continuous
 62
     7
100
AcDbLine
 10
-49.02553808612075
 20
81.57119165518809
 30
0.0
 11
-49.0755380861207
 21
81.57119165518809
 31
0.0
  0
LINE
  5
C3
330
1F
100
AcDbEntity
  8
0
  6
Continuous
 62
     7
100
AcDbLine
 10
-49.02553808612075
 20
81.35778764760522
 30
0.0
 11
-49.02553808612075
 21
81.57119165518809
 31
0.0
  0
LINE
  5
C4
330
1F
100
AcDbEntity
  8
0
  6
Continuous
 62
     7
100
AcDbLine
 10
-49.0755380861207
 20
81.57119165518809
 30
0.0
 11
-49.0755380861207
 21
83.8711916551881
 31
0.0
  0
LINE
  5
C5
330
1F
100
AcDbEntity
  8
0
  6
Continuous
 62
     7
100
AcDbLine
 10
-47.82553808612076
 20
81.57119165518809
 30
0.0
 11
-47.8255380861207
 21
83.7022952695632
 31
0.0
  0
LINE
  5
C6
330
1F
100
AcDbEntity
  8
0
  6
Continuous
 62
     7
100
AcDbLine
 10
-47.82553808612076
 20
81.3577876476052
 30
0.0
 11
-47.82553808612076
 21
81.57119165518809
 31
0.0
  0
LINE
  5
C7
330
1F
100
AcDbEntity
  8
0
  6
Continuous
 62
     7
100
AcDbLine
 10
-47.77553808612069
 20
81.57119165518809
 30
0.0
 11
-47.77553808612069
 21
83.87119165518807
 31
0.0
  0
LINE
  5
C8
330
1F
100
AcDbEntity
  8
0
  6
Continuous
 62
     7
100
AcDbLine
 10
-47.77553808612069
 20
81.57119165518809
 30
0.0
 11
-47.82553808612076
 21
81.57119165518809
 31
0.0
  0
LINE
  5
C9
330
1F
100
AcDbEntity
  8
0
  6
Continuous
 62
     7
100
AcDbLine
 10
-47.62553808612083
 20
74.74687135457948
 30
0.0
 11
-47.62553808612083
 21
74.00229526956319
 31
0.0
  0
LINE
  5
CA
330
1F
100
AcDbEntity
  8
0
  6
Continuous
 62
     7
100
AcDbLine
 10
-46.67553808612061
 20
98.30229526956222
 30
0.0
 11
-46.67553808612067
 21
95.40229526956223
 31
0.0
  0
LINE
  5
CB
330
1F
100
AcDbEntity
  8
0
  6
Continuous
 62
     7
100
AcDbLine
 10
-47.27590581272241
 20
81.57119165518807
 30
0.0
 11
-47.27895424986301
 21
83.87119165518807
 31
0.0
  0
LINE
  5
CC
330
1F
100
AcDbEntity
  8
0
  6
Continuous
 62
     7
100
AcDbLine
 10
-47.27590581272241
 20
81.35778768212822
 30
0.0
 11
-46.84433030458754
 21
83.70229526956342
 31
0.0
  0
LINE
  5
CD
330
1F
100
AcDbEntity
  8
0
  6
Continuous
 62
     7
100
AcDbLine
 10
-47.27895424986301
 20
81.91544432576235
 30
0.0
 11
-46.94274610646059
 21
83.71618179939348
 31
0.0
  0
LINE
  5
CE
330
1F
100
AcDbEntity
  8
0
  6
Continuous
 62
     7
100
AcDbLine
 10
-46.94274610646059
 20
83.71618179939348
 30
0.0
 11
-46.94546264354327
 21
83.72711710752351
 31
0.0
  0
LINE
  5
CF
330
1F
100
AcDbEntity
  8
0
  6
Continuous
 62
     7
100
AcDbLine
 10
-47.27590581272241
 20
81.35778768212822
 30
0.0
 11
-47.27590581272241
 21
81.57119165518807
 31
0.0
  0
LINE
  5
D0
330
1F
100
AcDbEntity
  8
0
  6
Continuous
 62
     7
100
AcDbLine
 10
-46.94546264354327
 20
83.72711710752351
 30
0.0
 11
-46.84433030458754
 21
83.70229526956342
 31
0.0
  0
LINE
  5
D1
330
1F
100
AcDbEntity
  8
0
  6
Continuous
 62
     7
100
AcDbLine
 10
-47.52553808612086
 20
73.3022952695632
 30
0.0
 11
-47.17553808612084
 21
73.65229526956318
 31
0.0
  0
LINE
  5
D2
330
1F
100
AcDbEntity
  8
0
  6
Continuous
 62
     7
100
AcDbLine
 10
-46.82553808612076
 20
85.60229526956219
 30
0.0
 11
-46.82553808612065
 21
95.40229526956223
 31
0.0
  0
LINE
  5
D3
330
1F
100
AcDbEntity
  8
0
  6
Continuous
 62
     7
100
AcDbLine
 10
-47.27895424986301
 20
83.87119165518807
 30
0.0
 11
-47.27553808612069
 21
85.2022952695622
 31
0.0
  0
LINE
  5
D4
330
1F
100
AcDbEntity
  8
0
  6
Continuous
 62
     7
100
AcDbLine
 10
-47.17553808611936
 20
85.2022952695622
 30
0.0
 11
-47.27553808612069
 21
85.2022952695622
 31
0.0
  0
LINE
  5
D5
330
1F
100
AcDbEntity
  8
0
  6
Continuous
 62
     7
100
AcDbLine
 10
-47.17553808611936
 20
85.60229526956219
 30
0.0
 11
-47.17553808611936
 21
85.2022952695622
 31
0.0
  0
LINE
  5
D6
330
1F
100
AcDbEntity
  8
0
  6
Continuous
 62
     7
100
AcDbLine
 10
-46.82553808612065
 20
95.40229526956223
 30
0.0
 11
-46.67553808612067
 21
95.40229526956223
 31
0.0
  0
LINE
  5
D7
330
1F
100
AcDbEntity
  8
0
  6
Continuous
 62
     7
100
AcDbLine
 10
-47.52553808612086
 20
73.3022952695632
 30
0.0
 11
-47.52553808612086
 21
70.70229526956321
 31
0.0
  0
LINE
  5
D8
330
1F
100
AcDbEntity
  8
0
  6
Continuous
 62
     7
100
AcDbLine
 10
-47.52553808612086
 20
73.3022952695632
 30
0.0
 11
-49.32553808612082
 21
73.3022952695632
 31
0.0
  0
LINE
  5
D9
330
1F
100
AcDbEntity
  8
0
  6
Continuous
 62
     7
100
AcDbLine
 10
-49.57517035951909
 20
81.35778764760522
 30
0.0
 11
-49.57517035951909
 21
81.5711916551881
 31
0.0
  0
LINE
  5
DA
330
1F
100
AcDbEntity
  8
0
  6
Continuous
 62
     7
100
AcDbLine
 10
-47.6505380861208
 20
70.70229526956321
 30
0.0
 11
-49.20053808612082
 21
70.70229526956322
 31
0.0
  0
LINE
  5
DB
330
1F
100
AcDbEntity
  8
0
  6
Continuous
 62
     7
100
AcDbLine
 10
-47.52553808612086
 20
70.70229526956321
 30
0.0
 11
-47.6505380861208
 21
70.70229526956321
 31
0.0
  0
LINE
  5
DC
330
1F
100
AcDbEntity
  8
0
  6
Continuous
 62
     7
100
AcDbLine
 10
-49.20053808612082
 20
70.70229526956322
 30
0.0
 11
-49.32553808612087
 21
70.70229526956322
 31
0.0
  0
LINE
  5
DD
330
1F
100
AcDbEntity
  8
0
  6
Continuous
 62
     7
100
AcDbLine
 10
-49.32553808612082
 20
73.3022952695632
 30
0.0
 11
-49.32553808612087
 21
70.70229526956322
 31
0.0
  0
LINE
  5
DE
330
1F
100
AcDbEntity
  8
0
  6
Continuous
 62
     7
100
AcDbLine
 10
-49.57553808612076
 20
83.8711916551881
 30
0.0
 11
-49.5755380861207
 21
85.20229526956221
 31
0.0
  0
LINE
  5
DF
330
1F
100
AcDbEntity
  8
0
  6
Continuous
 62
     7
100
AcDbLine
 10
-50.02553808612075
 20
85.60229526956222
 30
0.0
 11
-50.02553808612063
 21
95.40229526956223
 31
0.0
  0
LINE
  5
E0
330
1F
100
AcDbEntity
  8
0
  6
Continuous
 62
     7
100
AcDbLine
 10
-49.57517035951909
 20
81.35778764760522
 30
0.0
 11
-50.00674587400883
 21
83.70229526956322
 31
0.0
  0
LINE
  5
E1
330
1F
100
AcDbEntity
  8
0
  6
Continuous
 62
     7
100
AcDbLine
 10
-49.5721219223785
 20
81.91544429124336
 30
0.0
 11
-49.9083300721351
 21
83.7161817993935
 31
0.0
  0
LINE
  5
E2
330
1F
100
AcDbEntity
  8
0
  6
Continuous
 62
     7
100
AcDbLine
 10
-49.67553808611936
 20
85.60229526956222
 30
0.0
 11
-49.67553808611936
 21
85.20229526956221
 31
0.0
  0
LINE
  5
E3
330
1F
100
AcDbEntity
  8
0
  6
Continuous
 62
     7
100
AcDbLine
 10
-50.02553808612075
 20
85.60229526956222
 30
0.0
 11
-49.67553808611936
 21
85.60229526956222
 31
0.0
  0
LINE
  5
E4
330
1F
100
AcDbEntity
  8
0
  6
Continuous
 62
     7
100
AcDbLine
 10
-49.5755380861207
 20
85.20229526956221
 30
0.0
 11
-49.67553808611936
 21
85.20229526956221
 31
0.0
  0
LINE
  5
E5
330
1F
100
AcDbEntity
  8
0
  6
Continuous
 62
     7
100
AcDbLine
 10
-50.17553808612061
 20
95.40229526956223
 30
0.0
 11
-50.02553808612063
 21
95.40229526956223
 31
0.0
  0
LINE
  5
E6
330
1F
100
AcDbEntity
  8
0
  6
Continuous
 62
     7
100
AcDbLine
 10
-49.02553808612075
 20
81.57119165518809
 30
0.0
 11
-49.02553808612069
 21
83.70229526956341
 31
0.0
  0
LINE
  5
E7
330
1F
100
AcDbEntity
  8
0
  6
Continuous
 62
     7
100
AcDbLine
 10
-49.22553808612085
 20
74.45065184064963
 30
0.0
 11
-49.22553808612085
 21
74.00229526956322
 31
0.0
  0
LINE
  5
E8
330
1F
100
AcDbEntity
  8
0
  6
Continuous
 62
     7
100
AcDbLine
 10
-47.65053808612086
 20
68.50229526956319
 30
0.0
 11
-49.20053808612087
 21
68.50229526956319
 31
0.0
  0
LINE
  5
E9
330
1F
100
AcDbEntity
  8
0
  6
Continuous
 62
     7
100
AcDbLine
 10
-49.20053808612082
 20
70.70229526956322
 30
0.0
 11
-49.20053808612087
 21
68.50229526956319
 31
0.0
  0
LINE
  5
EA
330
1F
100
AcDbEntity
  8
0
  6
Continuous
 62
     7
100
AcDbLine
 10
-47.6505380861208
 20
70.70229526956321
 30
0.0
 11
-47.65053808612086
 21
68.50229526956319
 31
0.0
  0
LINE
  5
EB
330
1F
100
AcDbEntity
  8
0
  6
Continuous
 62
     7
100
AcDbLine
 10
-50.17553808612061
 20
98.30229526956222
 30
0.0
 11
-46.67553808612061
 21
98.30229526956222
 31
0.0
  0
LINE
  5
EC
330
1F
100
AcDbEntity
  8
0
  6
Continuous
 62
     7
100
AcDbLine
 10
-50.02553808612063
 20
95.40229526956223
 30
0.0
 11
-46.82553808612065
 21
95.40229526956223
 31
0.0
  0
LINE
  5
ED
330
1F
100
AcDbEntity
  8
0
  6
Continuous
 62
     7
100
AcDbLine
 10
-49.67553808611936
 20
85.60229526956222
 30
0.0
 11
-47.17553808611936
 21
85.60229526956219
 31
0.0
  0
LINE
  5
EE
330
1F
100
AcDbEntity
  8
0
  6
Continuous
 62
     7
100
AcDbLine
 10
-47.8255380861207
 20
83.7022952695632
 30
0.0
 11
-47.8255380861207
 21
83.7271171075235
 31
0.0
  0
LINE
  5
EF
330
1F
100
AcDbEntity
  8
0
  6
Continuous
 62
     7
100
AcDbLine
 10
-49.02553808612069
 20
83.72711710752374
 30
0.0
 11
-49.02553808612069
 21
83.70229526956341
 31
0.0
  0
LINE
  5
F0
330
1F
100
AcDbEntity
  8
0
  6
Continuous
 62
     7
100
AcDbLine
 10
-49.9083300721351
 20
83.7161817993935
 30
0.0
 11
-49.90561353505242
 21
83.72711710752351
 31
0.0
  0
LINE
  5
F1
330
1F
100
AcDbEntity
  8
0
  6
Continuous
 62
     7
100
AcDbLine
 10
-50.00674587400883
 20
83.70229526956322
 30
0.0
 11
-49.90561353505242
 21
83.72711710752351
 31
0.0
  0
LINE
  5
F2
330
1F
100
AcDbEntity
  8
0
  6
Continuous
 62
     7
100
AcDbLine
 10
-49.0755380861207
 20
83.8711916551881
 30
0.0
 11
-47.77553808612069
 21
83.87119165518807
 31
0.0
  0
LINE
  5
F3
330
1F
100
AcDbEntity
  8
0
  6
Continuous
 62
     7
100
AcDbLine
 10
-47.27553808612069
 20
85.2022952695622
 30
0.0
 11
-49.5755380861207
 21
85.20229526956221
 31
0.0
  0
LINE
  5
F4
330
1F
100
AcDbEntity
  8
0
  6
Continuous
 62
     7
100
AcDbLine
 10
-47.17553808611936
 20
85.60229526956219
 30
0.0
 11
-46.82553808612076
 21
85.60229526956219
 31
0.0
  0
LINE
  5
F5
330
1F
100
AcDbEntity
  8
0
  6
Continuous
 62
     7
100
AcDbLine
 10
-50.17553808612061
 20
98.30229526956222
 30
0.0
 11
-50.17553808612061
 21
95.40229526956223
 31
0.0
  0
LINE
  5
F6
330
1F
100
AcDbEntity
  8
1
  6
Continuous
 62
     7
100
AcDbLine
 10
-81.12329174230317
 20
107.1180281613771
 30
0.0
 11
-81.12329174230317
 21
126.1180281613771
 31
0.0
  0
LINE
  5
F7
330
1F
100
AcDbEntity
  8
1
  6
Continuous
 62
     7
100
AcDbLine
 10
-80.12329174230317
 20
107.1180281613771
 30
0.0
 11
-80.12329174230317
 21
126.1180281613771
 31
0.0
  0
LINE
  5
F8
102
{ACAD_REACTORS
330
1F5
102
}
330
1F
100
AcDbEntity
  8
1
  6
Continuous
 62
     7
100
AcDbLine
 10
-81.72329174230319
 20
126.1180281613771
 30
0.0
 11
-81.72329174230313
 21
134.1109927506105
 31
0.0
  0
LINE
  5
F9
102
{ACAD_REACTORS
330
1F5
102
}
330
1F
100
AcDbEntity
  8
1
  6
Continuous
 62
     7
100
AcDbLine
 10
-79.52329174230314
 20
126.1180281613771
 30
0.0
 11
-79.5232917423032
 21
134.866548306166
 31
0.0
  0
LINE
  5
FA
102
{ACAD_REACTORS
330
1F5
102
}
330
1F
100
AcDbEntity
  8
1
  6
Continuous
 62
     7
100
AcDbLine
 10
-79.52329174230314
 20
126.1180281613771
 30
0.0
 11
-81.72329174230319
 21
126.1180281613771
 31
0.0
  0
LINE
  5
FB
330
1F
100
AcDbEntity
  8
1
  6
Continuous
 62
     7
100
AcDbLine
 10
-80.12329174230317
 20
107.1180281613771
 30
0.0
 11
-81.12329174230317
 21
107.1180281613771
 31
0.0
  0
LINE
  5
FC
330
1F
100
AcDbEntity
  8
1
  6
Continuous
 62
     7
100
AcDbLine
 10
-81.72329174230313
 20
134.1109927506105
 30
0.0
 11
-84.72329174230319
 21
133.0806897203075
 31
0.0
  0
LINE
  5
FD
330
1F
100
AcDbEntity
  8
1
  6
Continuous
 62
     7
100
AcDbLine
 10
-76.5232917423032
 20
135.896851336469
 30
0.0
 11
-79.5232917423032
 21
134.866548306166
 31
0.0
  0
LINE
  5
FE
102
{ACAD_REACTORS
330
1F5
102
}
330
1F
100
AcDbEntity
  8
1
  6
Continuous
 62
     7
100
AcDbLine
 10
-79.5232917423032
 20
134.866548306166
 30
0.0
 11
-81.72329174230313
 21
134.1109927506105
 31
0.0
  0
LINE
  5
FF
330
1F
100
AcDbEntity
  8
1
  6
Continuous
 62
     7
100
AcDbLine
 10
-94.49999999999997
 20
7.49999999999994
 30
0.0
 11
-79.49999999999997
 21
7.49999999999994
 31
0.0
  0
LINE
  5
100
330
1F
100
AcDbEntity
  8
1
  6
Continuous
 62
     7
100
AcDbLine
 10
-94.49999999999997
 20
10.0
 30
0.0
 11
-94.49999999999997
 21
2.49999999999994
 31
0.0
  0
LINE
  5
101
330
1F
100
AcDbEntity
  8
1
  6
Continuous
 62
     7
100
AcDbLine
 10
-24.49999999999997
 20
10.0
 30
0.0
 11
-24.49999999999997
 21
2.5
 31
0.0
  0
LINE
  5
102
330
1F
100
AcDbEntity
  8
1
  6
Continuous
 62
     7
100
AcDbLine
 10
-15.82369931125729
 20
10.0
 30
0.0
 11
-15.82369931125729
 21
2.5
 31
0.0
  0
LINE
  5
103
330
1F
100
AcDbEntity
  8
1
  6
Continuous
 62
     7
100
AcDbLine
 10
-79.49999999999997
 20
10.0
 30
0.0
 11
-79.49999999999997
 21
2.5
 31
0.0
  0
LINE
  5
104
330
1F
100
AcDbEntity
  8
1
  6
Continuous
 62
     7
100
AcDbLine
 10
-94.49999999999997
 20
4.99999999999993
 30
0.0
 11
-79.49999999999997
 21
4.99999999999993
 31
0.0
  0
LINE
  5
105
330
1F
100
AcDbEntity
  8
1
  6
Continuous
 62
     7
100
AcDbLine
 10
-105.0
 20
74.2499999999999
 30
0.0
 11
-97.50000000000003
 21
74.2499999999999
 31
0.0
  0
LINE
  5
106
330
1F
100
AcDbEntity
  8
1
  6
Continuous
 62
     7
100
AcDbLine
 10
0.00000000000006
 20
0.0
 30
0.0
 11
0.00000000000003
 21
148.5000000000001
 31
0.0
  0
LINE
  5
107
330
1F
100
AcDbEntity
  8
1
  6
Continuous
 62
     7
100
AcDbLine
 10
-104.9999999999999
 20
0.0
 30
0.0
 11
0.00000000000006
 21
0.0
 31
0.0
  0
LINE
  5
108
330
1F
100
AcDbEntity
  8
1
  6
Continuous
 62
     7
100
AcDbLine
 10
-104.9999999999999
 20
148.5
 30
0.0
 11
-104.9999999999999
 21
0.0
 31
0.0
  0
LINE
  5
109
330
1F
100
AcDbEntity
  8
1
  6
Continuous
 62
     7
100
AcDbLine
 10
0.00000000000003
 20
148.5000000000001
 30
0.0
 11
-104.9999999999999
 21
148.5
 31
0.0
  0
LINE
  5
10A
330
1F
100
AcDbEntity
  8
1
  6
Continuous
 62
     7
100
AcDbLine
 10
-2.49999999999997
 20
2.49999999999994
 30
0.0
 11
-2.49999999999997
 21
146.0000000000001
 31
0.0
  0
LINE
  5
10B
330
1F
100
AcDbEntity
  8
1
  6
Continuous
 62
     7
100
AcDbLine
 10
-2.49999999999997
 20
146.0000000000001
 30
0.0
 11
-94.49999999999997
 21
146.0000000000001
 31
0.0
  0
LINE
  5
10C
330
1F
100
AcDbEntity
  8
1
  6
Continuous
 62
     7
100
AcDbLine
 10
-94.49999999999997
 20
146.0000000000001
 30
0.0
 11
-94.49999999999997
 21
2.49999999999994
 31
0.0
  0
LINE
  5
10D
102
{ACAD_REACTORS
330
1F9
102
}
330
1F
100
AcDbEntity
  8
1
  6
Continuous
 62
     7
100
AcDbLine
 10
-7.99518298896194
 20
5.03874991991631
 30
0.0
 11
-7.99518298896194
 21
7.46125008008369
 31
0.0
  0
LINE
  5
10E
102
{ACAD_REACTORS
330
1F6
102
}
330
1F
100
AcDbEntity
  8
1
  6
Continuous
 62
     7
100
AcDbLine
 10
-8.66184965562863
 20
6.25
 30
0.0
 11
-8.66184965562863
 21
7.11602540378442
 31
0.0
  0
LINE
  5
10F
102
{ACAD_REACTORS
330
1F6
102
}
330
1F
100
AcDbEntity
  8
1
  6
Continuous
 62
     7
100
AcDbLine
 10
-8.66184965562863
 20
7.11602540378442
 30
0.0
 11
-9.08968087197994
 21
6.375
 31
0.0
  0
LINE
  5
110
102
{ACAD_REACTORS
330
1F6
102
}
330
1F
100
AcDbEntity
  8
1
  6
Continuous
 62
     7
100
AcDbLine
 10
-9.23401843927738
 20
6.375
 30
0.0
 11
-9.66184965562863
 21
7.11602540378442
 31
0.0
  0
LINE
  5
111
102
{ACAD_REACTORS
330
1F6
102
}
330
1F
100
AcDbEntity
  8
1
  6
Continuous
 62
     7
100
AcDbLine
 10
-9.66184965562863
 20
7.11602540378442
 30
0.0
 11
-9.66184965562863
 21
6.25
 31
0.0
  0
LINE
  5
112
330
1F
100
AcDbEntity
  8
1
  6
Continuous
 62
     7
100
AcDbLine
 10
-13.37006729319941
 20
6.32218213217067
 30
0.0
 11
-9.16184965562863
 21
8.75
 31
0.0
  0
LINE
  5
113
330
1F
100
AcDbEntity
  8
1
  6
Continuous
 62
     7
100
AcDbLine
 10
-9.16184965562863
 20
8.75
 30
0.0
 11
-4.9536320180579
 21
6.32218213217067
 31
0.0
  0
LINE
  5
114
330
1F
100
AcDbEntity
  8
1
  6
Continuous
 62
     7
100
AcDbLine
 10
-4.9536320180579
 20
6.17781786782928
 30
0.0
 11
-9.16184965562863
 21
3.75
 31
0.0
  0
LINE
  5
115
330
1F
100
AcDbEntity
  8
1
  6
Continuous
 62
     7
100
AcDbLine
 10
-9.16184965562863
 20
3.75
 30
0.0
 11
-13.37006729319941
 21
6.17781786782928
 31
0.0
  0
LINE
  5
116
102
{ACAD_REACTORS
330
1F6
102
}
330
1F
100
AcDbEntity
  8
1
  6
Continuous
 62
     7
100
AcDbLine
 10
-9.995182988962
 20
6.25
 30
0.0
 11
-9.995182988962
 21
7.86560865601728
 31
0.0
  0
LINE
  5
117
102
{ACAD_REACTORS
330
1F6
102
}
330
1F
100
AcDbEntity
  8
1
  6
Continuous
 62
     7
100
AcDbLine
 10
-9.74796614715027
 20
7.93185020913614
 30
0.0
 11
-9.16184965562863
 21
6.91666666666663
 31
0.0
  0
LINE
  5
118
102
{ACAD_REACTORS
330
1F6
102
}
330
1F
100
AcDbEntity
  8
1
  6
Continuous
 62
     7
100
AcDbLine
 10
-9.995182988962
 20
6.25
 30
0.0
 11
-9.995182988962
 21
5.42379253631645
 31
0.0
  0
LINE
  5
119
102
{ACAD_REACTORS
330
1F6
102
}
330
1F
100
AcDbEntity
  8
1
  6
Continuous
 62
     7
100
AcDbLine
 10
-9.66184965562863
 20
5.42379253631645
 30
0.0
 11
-9.66184965562863
 21
6.25
 31
0.0
  0
LINE
  5
11A
102
{ACAD_REACTORS
330
1F6
102
}
330
1F
100
AcDbEntity
  8
1
  6
Continuous
 62
     7
100
AcDbLine
 10
-8.66184965562863
 20
6.25
 30
0.0
 11
-8.66184965562863
 21
4.6541345353009
 31
0.0
  0
LINE
  5
11B
102
{ACAD_REACTORS
330
1F6
102
}
330
1F
100
AcDbEntity
  8
1
  6
Continuous
 62
     7
100
AcDbLine
 10
-8.32851632229531
 20
4.6541345353009
 30
0.0
 11
-8.32851632229531
 21
7.86560865601728
 31
0.0
  0
LINE
  5
11C
102
{ACAD_REACTORS
330
1F6
102
}
330
1F
100
AcDbEntity
  8
1
  6
Continuous
 62
     7
100
AcDbLine
 10
-8.57573316410699
 20
7.93185020913614
 30
0.0
 11
-9.16184965562863
 21
6.91666666666663
 31
0.0
  0
LINE
  5
11D
102
{ACAD_REACTORS
330
1F7
102
}
330
1F
100
AcDbEntity
  8
1
  6
Continuous
 62
     7
100
AcDbLine
 10
-10.66184965562863
 20
5.13501057401629
 30
0.0
 11
-10.66184965562863
 21
7.46125008008369
 31
0.0
  0
LINE
  5
11E
102
{ACAD_REACTORS
330
1F7
102
}
330
1F
100
AcDbEntity
  8
1
  6
Continuous
 62
     7
100
AcDbLine
 10
-10.32851632229531
 20
7.46125008008369
 30
0.0
 11
-10.32851632229531
 21
5.13501057401635
 31
0.0
  0
LINE
  5
11F
102
{ACAD_REACTORS
330
1F7
102
}
330
1F
100
AcDbEntity
  8
1
  6
Continuous
 62
     7
100
AcDbLine
 10
-10.32851632229531
 20
5.13501057401635
 30
0.0
 11
-9.24522924671371
 21
4.5100372611808
 31
0.0
  0
LINE
  5
120
102
{ACAD_REACTORS
330
1F7
102
}
330
1F
100
AcDbEntity
  8
1
  6
Continuous
 62
     7
100
AcDbLine
 10
-9.41180339787692
 20
4.2213087324979
 30
0.0
 11
-10.49509047345848
 21
4.84628204533345
 31
0.0
  0
LINE
  5
121
102
{ACAD_REACTORS
330
1F8
102
}
330
1F
100
AcDbEntity
  8
1
  6
Continuous
 62
     7
100
AcDbLine
 10
-10.995182988962
 20
7.07663469546833
 30
0.0
 11
-10.995182988962
 21
5.51962595863165
 31
0.0
  0
LINE
  5
122
102
{ACAD_REACTORS
330
1F8
102
}
330
1F
100
AcDbEntity
  8
1
  6
Continuous
 62
     7
100
AcDbLine
 10
-10.995182988962
 20
5.51962595863165
 30
0.0
 11
-10.995182988962
 21
5.42336530453161
 31
0.0
  0
LINE
  5
123
102
{ACAD_REACTORS
330
1F8
102
}
330
1F
100
AcDbEntity
  8
1
  6
Continuous
 62
     7
100
AcDbLine
 10
-11.32851632229531
 20
5.42336530453161
 30
0.0
 11
-11.32851632229531
 21
7.07663469546833
 31
0.0
  0
LINE
  5
124
102
{ACAD_REACTORS
330
1F9
102
}
330
1F
100
AcDbEntity
  8
1
  6
Continuous
 62
     7
100
AcDbLine
 10
-7.74522924671371
 20
7.60561434442513
 30
0.0
 11
-7.07856258004708
 21
7.22099895980972
 31
0.0
  0
LINE
  5
125
102
{ACAD_REACTORS
330
1F9
102
}
330
1F
100
AcDbEntity
  8
1
  6
Continuous
 62
     7
100
AcDbLine
 10
-7.24513673121024
 20
6.93227043112688
 30
0.0
 11
-7.66184965562863
 21
7.17268173367597
 31
0.0
  0
LINE
  5
126
102
{ACAD_REACTORS
330
1F9
102
}
330
1F
100
AcDbEntity
  8
1
  6
Continuous
 62
     7
100
AcDbLine
 10
-7.66184965562863
 20
7.17268173367597
 30
0.0
 11
-7.66184965562863
 21
6.41666666666663
 31
0.0
  0
LINE
  5
127
102
{ACAD_REACTORS
330
1F9
102
}
330
1F
100
AcDbEntity
  8
1
  6
Continuous
 62
     7
100
AcDbLine
 10
-7.66184965562863
 20
6.41666666666663
 30
0.0
 11
-7.16184965562863
 21
6.41666666666663
 31
0.0
  0
LINE
  5
128
102
{ACAD_REACTORS
330
1F9
102
}
330
1F
100
AcDbEntity
  8
1
  6
Continuous
 62
     7
100
AcDbLine
 10
-7.16184965562863
 20
6.08333333333332
 30
0.0
 11
-7.66184965562863
 21
6.08333333333332
 31
0.0
  0
LINE
  5
129
102
{ACAD_REACTORS
330
1F9
102
}
330
1F
100
AcDbEntity
  8
1
  6
Continuous
 62
     7
100
AcDbLine
 10
-7.66184965562863
 20
6.08333333333332
 30
0.0
 11
-7.66184965562863
 21
5.32731826632397
 31
0.0
  0
LINE
  5
12A
102
{ACAD_REACTORS
330
1F9
102
}
330
1F
100
AcDbEntity
  8
1
  6
Continuous
 62
     7
100
AcDbLine
 10
-7.66184965562863
 20
5.32731826632397
 30
0.0
 11
-7.24513673121024
 21
5.56772956887312
 31
0.0
  0
LINE
  5
12B
102
{ACAD_REACTORS
330
1F9
102
}
330
1F
100
AcDbEntity
  8
1
  6
Continuous
 62
     7
100
AcDbLine
 10
-7.07856258004708
 20
5.27900104019017
 30
0.0
 11
-7.74522924671371
 21
4.89438565557487
 31
0.0
  0
LINE
  5
12C
330
1F
100
AcDbEntity
  8
1
  6
Continuous
 62
     7
100
AcDbLine
 10
-94.49999999999997
 20
12.5
 30
0.0
 11
-2.49999999999997
 21
12.5
 31
0.0
  0
LINE
  5
12D
330
1F
100
AcDbEntity
  8
1
  6
Continuous
 62
     7
100
AcDbLine
 10
-90.99999999999997
 20
10.0
 30
0.0
 11
-90.99999999999997
 21
12.5
 31
0.0
  0
LINE
  5
12E
330
1F
100
AcDbEntity
  8
1
  6
Continuous
 62
     7
100
AcDbLine
 10
-81.99999999999991
 20
10.0
 30
0.0
 11
-81.99999999999991
 21
12.5
 31
0.0
  0
LINE
  5
12F
330
1F
100
AcDbEntity
  8
1
  6
Continuous
 62
     7
100
AcDbLine
 10
-94.49999999999997
 20
15.0
 30
0.0
 11
-2.49999999999997
 21
15.0
 31
0.0
  0
LINE
  5
130
330
1F
100
AcDbEntity
  8
1
  6
Continuous
 62
     7
100
AcDbLine
 10
-90.99999999999997
 20
12.5
 30
0.0
 11
-90.99999999999997
 21
15.0
 31
0.0
  0
LINE
  5
131
330
1F
100
AcDbEntity
  8
1
  6
Continuous
 62
     7
100
AcDbLine
 10
-81.99999999999991
 20
12.5
 30
0.0
 11
-81.99999999999991
 21
15.0
 31
0.0
  0
LINE
  5
132
330
1F
100
AcDbEntity
  8
1
  6
Continuous
 62
     7
100
AcDbLine
 10
-94.49999999999997
 20
17.5
 30
0.0
 11
-2.49999999999997
 21
17.5
 31
0.0
  0
LINE
  5
133
330
1F
100
AcDbEntity
  8
1
  6
Continuous
 62
     7
100
AcDbLine
 10
-90.99999999999997
 20
15.0
 30
0.0
 11
-90.99999999999997
 21
17.5
 31
0.0
  0
LINE
  5
134
330
1F
100
AcDbEntity
  8
1
  6
Continuous
 62
     7
100
AcDbLine
 10
-81.99999999999991
 20
15.0
 30
0.0
 11
-81.99999999999991
 21
17.5
 31
0.0
  0
LINE
  5
135
330
1F
100
AcDbEntity
  8
1
  6
Continuous
 62
     7
100
AcDbLine
 10
-94.49999999999997
 20
20.0
 30
0.0
 11
-2.49999999999997
 21
20.0
 31
0.0
  0
LINE
  5
136
330
1F
100
AcDbEntity
  8
1
  6
Continuous
 62
     7
100
AcDbLine
 10
-90.99999999999997
 20
17.5
 30
0.0
 11
-90.99999999999997
 21
20.0
 31
0.0
  0
LINE
  5
137
330
1F
100
AcDbEntity
  8
1
  6
Continuous
 62
     7
100
AcDbLine
 10
-81.99999999999991
 20
17.5
 30
0.0
 11
-81.99999999999991
 21
20.0
 31
0.0
  0
LINE
  5
138
330
1F
100
AcDbEntity
  8
1
  6
Continuous
 62
     7
100
AcDbLine
 10
-94.49999999999997
 20
2.49999999999994
 30
0.0
 11
-2.49999999999997
 21
2.49999999999994
 31
0.0
  0
LINE
  5
139
330
1F
100
AcDbEntity
  8
1
  6
Continuous
 62
     7
100
AcDbLine
 10
-94.49999999999997
 20
10.0
 30
0.0
 11
-2.49999999999997
 21
10.0
 31
0.0
  0
ARC
  5
13A
330
1F
100
AcDbEntity
  8
0
  6
Continuous
 62
     7
100
AcDbCircle
 10
-48.42553808612061
 20
90.69205320823923
 30
0.0
 40
9.353529470549516
100
AcDbArc
 50
266.3221276209737
 51
273.6778723790245
  0
ARC
  5
13B
330
1F
100
AcDbEntity
  8
0
  6
Continuous
 62
     7
100
AcDbCircle
 10
-47.42553808612084
 20
74.0022952695622
 30
0.0
 40
0.1500000000000412
100
AcDbArc
 50
0.0
 51
179.99999999962
  0
ARC
  5
13C
330
1F
100
AcDbEntity
  8
0
  6
Continuous
 62
     7
100
AcDbCircle
 10
-48.42553808612067
 20
88.42098540025472
 30
0.0
 40
4.75668335602483
100
AcDbArc
 50
262.7535035064636
 51
277.2464964935355
  0
ARC
  5
13D
330
1F
100
AcDbEntity
  8
0
  6
Continuous
 62
     7
100
AcDbCircle
 10
-48.42553808612033
 20
87.87159014601282
 30
0.0
 40
4.187679162347965
100
AcDbArc
 50
261.7624570537703
 51
278.2375429462194
  0
ARC
  5
13E
102
{ACAD_REACTORS
330
1F6
102
}
330
1F
100
AcDbEntity
  8
1
  6
Continuous
 62
     7
100
AcDbCircle
 10
-9.86269988272434
 20
7.86560865601728
 30
0.0
 40
0.1324831062376673
100
AcDbArc
 50
30.00000000001307
 51
180.0
  0
ARC
  5
13F
102
{ACAD_REACTORS
330
1F6
102
}
330
1F
100
AcDbEntity
  8
1
  6
Continuous
 62
     7
100
AcDbCircle
 10
-9.82851632229531
 20
5.42379253631645
 30
0.0
 40
0.1666666666666856
100
AcDbArc
 50
180.0
 51
0.0
  0
ARC
  5
140
102
{ACAD_REACTORS
330
1F6
102
}
330
1F
100
AcDbEntity
  8
1
  6
Continuous
 62
     7
100
AcDbCircle
 10
-8.49518298896194
 20
4.6541345353009
 30
0.0
 40
0.1666666666666856
100
AcDbArc
 50
180.0
 51
0.0
  0
ARC
  5
141
102
{ACAD_REACTORS
330
1F6
102
}
330
1F
100
AcDbEntity
  8
1
  6
Continuous
 62
     7
100
AcDbCircle
 10
-8.46099942853297
 20
7.86560865601728
 30
0.0
 40
0.1324831062376575
100
AcDbArc
 50
0.0
 51
149.9999999999746
  0
ARC
  5
142
102
{ACAD_REACTORS
330
1F7
102
}
330
1F
100
AcDbEntity
  8
1
  6
Continuous
 62
     7
100
AcDbCircle
 10
-10.495182988962
 20
7.46125008008369
 30
0.0
 40
0.1666666666666909
100
AcDbArc
 50
0.0
 51
180.0
  0
ARC
  5
143
102
{ACAD_REACTORS
330
1F7
102
}
330
1F
100
AcDbEntity
  8
1
  6
Continuous
 62
     7
100
AcDbCircle
 10
-9.32851632229531
 20
4.36567299683935
 30
0.0
 40
0.1666666666666854
100
AcDbArc
 50
240.0183606311493
 51
60.01836063114937
  0
ARC
  5
144
102
{ACAD_REACTORS
330
1F8
102
}
330
1F
100
AcDbEntity
  8
1
  6
Continuous
 62
     7
100
AcDbCircle
 10
-11.16184965562863
 20
7.07663469546833
 30
0.0
 40
0.1666666666666305
100
AcDbArc
 50
0.0
 51
180.0
  0
ARC
  5
145
102
{ACAD_REACTORS
330
1F8
102
}
330
1F
100
AcDbEntity
  8
1
  6
Continuous
 62
     7
100
AcDbCircle
 10
-11.16184965562863
 20
5.42336530453161
 30
0.0
 40
0.1666666666666785
100
AcDbArc
 50
180.0
 51
0.0
  0
ARC
  5
146
102
{ACAD_REACTORS
330
1F9
102
}
330
1F
100
AcDbEntity
  8
1
  6
Continuous
 62
     7
100
AcDbCircle
 10
-7.16184965562863
 20
7.07663469546833
 30
0.0
 40
0.1666666666666878
100
AcDbArc
 50
240.0183606311498
 51
60.01836063115638
  0
ARC
  5
147
102
{ACAD_REACTORS
330
1F9
102
}
330
1F
100
AcDbEntity
  8
1
  6
Continuous
 62
     7
100
AcDbCircle
 10
-7.16184965562863
 20
6.25
 30
0.0
 40
0.1666666666666847
100
AcDbArc
 50
270.0
 51
90.0
  0
ARC
  5
148
102
{ACAD_REACTORS
330
1F9
102
}
330
1F
100
AcDbEntity
  8
1
  6
Continuous
 62
     7
100
AcDbCircle
 10
-7.16184965562863
 20
5.42336530453161
 30
0.0
 40
0.1666666666666586
100
AcDbArc
 50
299.9816393688334
 51
119.9816393688407
  0
SPLINE
  5
149
330
1F
100
AcDbEntity
  8
0
  6
Continuous
 62
     7
100
AcDbSpline
210
0.0
220
0.0
230
1.0
 70
     8
 71
     3
 72
     9
 73
     5
 74
     3
 42
0.000000001
 43
0.0000000001
 44
0.00000001
 40
0.0
 40
0.0
 40
0.0
 40
0.0
 40
0.4475314476984
 40
0.9978652603878525
 40
0.9978652603878525
 40
0.9978652603878525
 40
0.9978652603878525
 10
-20.13915939509441
 20
132.6595697780352
 30
0.0
 10
-20.25763414740156
 20
132.759823711307
 30
0.0
 10
-20.52179844998725
 20
132.9833609015102
 30
0.0
 10
-20.54319053084589
 20
133.3324444096008
 30
0.0
 10
-20.55498849219298
 20
133.5249678586858
 30
0.0
 11
-20.13915939509441
 21
132.6595697780352
 31
0.0
 11
-20.44575189570541
 21
132.9855842527134
 31
0.0
 11
-20.55498849219298
 21
133.5249678586858
 31
0.0
  0
SPLINE
  5
14A
330
1F
100
AcDbEntity
  8
0
  6
Continuous
 62
     7
100
AcDbSpline
210
0.0
220
0.0
230
1.0
 70
     8
 71
     3
 72
    11
 73
     7
 74
     5
 42
0.000000001
 43
0.0000000001
 44
0.00000001
 40
0.0
 40
0.0
 40
0.0
 40
0.0
 40
0.8464733947186414
 40
1.729579254722401
 40
2.48770734902226
 40
3.067007171449982
 40
3.067007171449982
 40
3.067007171449982
 40
3.067007171449982
 10
-20.55498849219298
 20
133.5249678586858
 30
0.0
 10
-20.51589523569899
 20
133.8086605324528
 30
0.0
 10
-20.43601688776484
 20
134.3883231222722
 30
0.0
 10
-19.97346472789684
 20
135.0843815987142
 30
0.0
 10
-19.36616280058258
 20
135.6153208621542
 30
0.0
 10
-18.90697196809646
 20
135.5500210596414
 30
0.0
 10
-18.70807588949454
 20
135.5217367892349
 30
0.0
 11
-20.55498849219298
 21
133.5249678586858
 31
0.0
 11
-20.37981353827141
 21
134.3531169610975
 31
0.0
 11
-19.9086212087746
 21
135.1000130385661
 31
0.0
 11
-19.28723855500427
 21
135.5343422002862
 31
0.0
 11
-18.70807588949454
 21
135.5217367892349
 31
0.0
  0
SPLINE
  5
14B
330
1F
100
AcDbEntity
  8
0
  6
Continuous
 62
     7
100
AcDbSpline
210
0.0
220
0.0
230
1.0
 70
     8
 71
     3
 72
    11
 73
     7
 74
     5
 42
0.000000001
 43
0.0000000001
 44
0.00000001
 40
0.0
 40
0.0
 40
0.0
 40
0.0
 40
0.6534692904672907
 40
1.56520209073369
 40
2.476934891000139
 40
3.130404181467449
 40
3.130404181467449
 40
3.130404181467449
 40
3.130404181467449
 10
-18.86460064791855
 20
135.2086872723854
 30
0.0
 10
-19.09408913798378
 20
135.2077023032583
 30
0.0
 10
-19.64376433833556
 20
135.2053430710557
 30
0.0
 10
-20.1447703347617
 20
134.4512296298696
 30
0.0
 10
-20.44745748985485
 20
133.5979567680171
 30
0.0
 10
-20.119539755406
 20
133.156801068414
 30
0.0
 10
-19.98263463666847
 20
132.9726192948856
 30
0.0
 11
-18.86460064791855
 21
135.2086872723854
 31
0.0
 11
-19.51243843142872
 21
135.1230816537106
 31
0.0
 11
-20.10827083917496
 21
134.4329798820763
 31
0.0
 11
-20.30285281183474
 21
133.5422528928986
 31
0.0
 11
-19.98263463666847
 21
132.9726192948856
 31
0.0
  0
SPLINE
  5
14C
330
1F
100
AcDbEntity
  8
0
  6
Continuous
 62
     7
100
AcDbSpline
210
0.0
220
0.0
230
1.0
 70
     8
 71
     3
 72
     9
 73
     5
 74
     3
 42
0.000000001
 43
0.0000000001
 44
0.00000001
 40
0.0
 40
0.0
 40
0.0
 40
0.0
 40
0.2365212035078653
 40
0.4414042464644187
 40
0.4414042464644187
 40
0.4414042464644187
 40
0.4414042464644187
 10
-18.94198280136915
 20
133.1157867392268
 30
0.0
 10
-18.9391075706728
 20
133.0358970289518
 30
0.0
 10
-18.93374169397175
 20
132.8868040261131
 30
0.0
 10
-18.86693456196364
 20
132.7537703147632
 30
0.0
 10
-18.83592522658411
 20
132.6920211347945
 30
0.0
 11
-18.94198280136915
 21
133.1157867392268
 31
0.0
 11
-18.91571593465227
 21
132.8807285930113
 31
0.0
 11
-18.83592522658411
 21
132.6920211347945
 31
0.0
  0
SPLINE
  5
14D
330
1F
100
AcDbEntity
  8
0
  6
Continuous
 62
     7
100
AcDbSpline
210
0.0
220
0.0
230
1.0
 70
     8
 71
     3
 72
     9
 73
     5
 74
     3
 42
0.000000001
 43
0.0000000001
 44
0.00000001
 40
0.0
 40
0.0
 40
0.0
 40
0.0
 40
0.1565648088676211
 40
0.3199900611625079
 40
0.3199900611625079
 40
0.3199900611625079
 40
0.3199900611625079
 10
-19.69979192419383
 20
132.8311979386483
 30
0.0
 10
-19.65048366224913
 20
132.8119606664657
 30
0.0
 10
-19.5497065172649
 20
132.7726431917722
 30
0.0
 10
-19.44184015026819
 20
132.7818027363074
 30
0.0
 10
-19.38675066278729
 20
132.7864807068191
 30
0.0
 11
-19.69979192419383
 21
132.8311979386483
 31
0.0
 11
-19.5501700102312
 21
132.785091293603
 31
0.0
 11
-19.38675066278729
 21
132.7864807068191
 31
0.0
  0
SPLINE
  5
14E
330
1F
100
AcDbEntity
  8
0
  6
Continuous
 62
     7
100
AcDbSpline
210
0.0
220
0.0
230
1.0
 70
     8
 71
     3
 72
    11
 73
     7
 74
     5
 42
0.000000001
 43
0.0000000001
 44
0.00000001
 40
0.0
 40
0.0
 40
0.0
 40
0.0
 40
0.8464733947186662
 40
1.729579254722385
 40
2.48770734902225
 40
3.067007171449981
 40
3.067007171449981
 40
3.067007171449981
 40
3.067007171449981
 10
-27.27250291346516
 20
136.8837250693219
 30
0.0
 10
-27.23340965697118
 20
137.1674177430889
 30
0.0
 10
-27.15353130903703
 20
137.7470803329083
 30
0.0
 10
-26.69097914916907
 20
138.4431388093503
 30
0.0
 10
-26.08367722185479
 20
138.9740780727904
 30
0.0
 10
-25.62448638936868
 20
138.9087782702775
 30
0.0
 10
-25.42559031076675
 20
138.880493999871
 30
0.0
 11
-27.27250291346516
 21
136.8837250693219
 31
0.0
 11
-27.09732795954361
 21
137.7118741717336
 31
0.0
 11
-26.62613563004683
 21
138.4587702492022
 31
0.0
 11
-26.00475297627649
 21
138.8930994109223
 31
0.0
 11
-25.42559031076675
 21
138.880493999871
 31
0.0
  0
SPLINE
  5
14F
330
1F
100
AcDbEntity
  8
0
  6
Continuous
 62
     7
100
AcDbSpline
210
0.0
220
0.0
230
1.0
 70
     8
 71
     3
 72
     9
 73
     5
 74
     3
 42
0.000000001
 43
0.0000000001
 44
0.00000001
 40
0.0
 40
0.0
 40
0.0
 40
0.0
 40
0.2287221314035127
 40
0.4654865585811528
 40
0.4654865585811528
 40
0.4654865585811528
 40
0.4654865585811528
 10
-25.35850827144176
 20
139.014658078521
 30
0.0
 10
-25.29287026654908
 20
138.9736372115714
 30
0.0
 10
-25.15928631513196
 20
138.8901530928175
 30
0.0
 10
-25.07823338534729
 20
138.7549644063549
 30
0.0
 10
-25.03700674497222
 20
138.6862022169738
 30
0.0
 11
-25.35850827144176
 21
139.014658078521
 31
0.0
 11
-25.17427714373399
 21
138.8791121243149
 31
0.0
 11
-25.03700674497222
 21
138.6862022169738
 31
0.0
  0
SPLINE
  5
150
330
1F
100
AcDbEntity
  8
0
  6
Continuous
 62
     7
100
AcDbSpline
210
0.0
220
0.0
230
1.0
 70
     8
 71
     3
 72
     9
 73
     5
 74
     3
 42
0.000000001
 43
0.0000000001
 44
0.00000001
 40
0.0
 40
0.0
 40
0.0
 40
0.0
 40
0.2367644271776886
 40
0.4654865585811873
 40
0.4654865585811873
 40
0.4654865585811873
 40
0.4654865585811873
 10
-26.46809025057209
 20
135.824035205774
 30
0.0
 10
-26.54783598630204
 20
135.8157592044454
 30
0.0
 10
-26.70461869334292
 20
135.7994883363956
 30
0.0
 10
-26.85155635919634
 20
135.8562650262769
 30
0.0
 10
-26.92375585569161
 20
135.8841629100213
 30
0.0
 11
-26.46809025057209
 21
135.824035205774
 31
0.0
 11
-26.70478041570209
 21
135.8181055803788
 31
0.0
 11
-26.92375585569161
 21
135.8841629100213
 31
0.0
  0
SPLINE
  5
151
330
1F
100
AcDbEntity
  8
0
  6
Continuous
 62
     7
100
AcDbSpline
210
0.0
220
0.0
230
1.0
 70
     8
 71
     3
 72
    11
 73
     7
 74
     5
 42
0.000000001
 43
0.0000000001
 44
0.00000001
 40
0.0
 40
0.0
 40
0.0
 40
0.0
 40
0.925830275049342
 40
1.891727309531569
 40
2.72092991364647
 40
3.354539094851066
 40
3.354539094851066
 40
3.354539094851066
 40
3.354539094851066
 10
-27.37856893064313
 20
136.8306920607329
 30
0.0
 10
-27.33581068137243
 20
137.1409809225234
 30
0.0
 10
-27.24844373954246
 20
137.7749868803705
 30
0.0
 10
-26.74252731400387
 20
138.5363008386488
 30
0.0
 10
-26.07829083112362
 20
139.117015659797
 30
0.0
 10
-25.57605085755828
 20
139.0455939992988
 30
0.0
 10
-25.35850827144176
 20
139.014658078521
 30
0.0
 11
-27.37856893064313
 21
136.8306920607329
 31
0.0
 11
-27.18697132479144
 21
137.7364801414957
 31
0.0
 11
-26.67160471440434
 21
138.5533977262271
 31
0.0
 11
-25.99196743684303
 21
139.0284452468584
 31
0.0
 11
-25.35850827144176
 21
139.014658078521
 31
0.0
  0
SPLINE
  5
152
330
1F
100
AcDbEntity
  8
0
  6
Continuous
 62
     7
100
AcDbSpline
210
0.0
220
0.0
230
1.0
 70
     8
 71
     3
 72
     9
 73
     5
 74
     3
 42
0.000000001
 43
0.0000000001
 44
0.00000001
 40
0.0
 40
0.0
 40
0.0
 40
0.0
 40
0.4894875211769196
 40
1.091415129062746
 40
1.091415129062746
 40
1.091415129062746
 40
1.091415129062746
 10
-26.92375585569161
 20
135.8841629100213
 30
0.0
 10
-27.05333761609552
 20
135.9938156495948
 30
0.0
 10
-27.34226732360777
 20
136.2383094504227
 30
0.0
 10
-27.36566491041427
 20
136.6201195382064
 30
0.0
 10
-27.37856893064313
 20
136.8306920607329
 30
0.0
 11
-26.92375585569161
 21
135.8841629100213
 31
0.0
 11
-27.25909140323487
 21
136.2407412417006
 31
0.0
 11
-27.37856893064313
 21
136.8306920607329
 31
0.0
  0
SPLINE
  5
153
330
1F
100
AcDbEntity
  8
0
  6
Continuous
 62
     7
100
AcDbSpline
210
0.0
220
0.0
230
1.0
 70
     8
 71
     3
 72
     9
 73
     5
 74
     3
 42
0.000000001
 43
0.0000000001
 44
0.00000001
 40
0.0
 40
0.0
 40
0.0
 40
0.0
 40
0.4475314476983952
 40
0.9978652603878435
 40
0.9978652603878435
 40
0.9978652603878435
 40
0.9978652603878435
 10
-26.85667381636662
 20
136.0183269886713
 30
0.0
 10
-26.97514856867377
 20
136.118580921943
 30
0.0
 10
-27.23931287125944
 20
136.3421181121463
 30
0.0
 10
-27.26070495211809
 20
136.6912016202369
 30
0.0
 10
-27.27250291346516
 20
136.8837250693219
 30
0.0
 11
-26.85667381636662
 21
136.0183269886713
 31
0.0
 11
-27.16326631697761
 21
136.3443414633495
 31
0.0
 11
-27.27250291346516
 21
136.8837250693219
 31
0.0
  0
SPLINE
  5
154
330
1F
100
AcDbEntity
  8
0
  6
Continuous
 62
     7
100
AcDbSpline
210
0.0
220
0.0
230
1.0
 70
     8
 71
     3
 72
     9
 73
     5
 74
     3
 42
0.000000001
 43
0.0000000001
 44
0.00000001
 40
0.0
 40
0.0
 40
0.0
 40
0.0
 40
0.5610744183769328
 40
0.9790570187613572
 40
0.9790570187613572
 40
0.9790570187613572
 40
0.9790570187613572
 10
-16.84656158872259
 20
133.2274934615356
 30
0.0
 10
-16.71202006020167
 20
133.3692546332298
 30
0.0
 10
-16.47724936170381
 20
133.616623353342
 30
0.0
 10
-16.14141085574233
 20
133.641245683217
 30
0.0
 10
-15.99803345129875
 20
133.6517575302475
 30
0.0
 11
-16.84656158872259
 21
133.2274934615356
 31
0.0
 11
-16.40974466110028
 21
133.5796233771962
 31
0.0
 11
-15.99803345129875
 21
133.6517575302475
 31
0.0
  0
SPLINE
  5
155
330
1F
100
AcDbEntity
  8
0
  6
Continuous
 62
     7
100
AcDbSpline
210
0.0
220
0.0
230
1.0
 70
     8
 71
     3
 72
    30
 73
    26
 74
    24
 42
0.000000001
 43
0.0000000001
 44
0.00000001
 40
0.0
 40
0.0
 40
0.0
 40
0.0
 40
0.1149007673214229
 40
0.198491692590361
 40
0.3009957839824977
 40
0.4454263770325068
 40
0.6263968652200986
 40
0.8918125912276722
 40
1.084754562989247
 40
1.308418046823508
 40
1.498608100359365
 40
1.637114921298655
 40
1.926119690668762
 40
2.214256071399394
 40
2.336753636925859
 40
2.521776621664855
 40
2.74493383416211
 40
2.923184364709662
 40
3.166810393578867
 40
3.322297086252755
 40
3.46299714753541
 40
3.642388353278122
 40
3.756969511555471
 40
3.830652517847557
 40
3.94937033591462
 40
3.94937033591462
 40
3.94937033591462
 40
3.94937033591462
 10
-14.4113545272095
 20
130.430862792823
 30
0.0
 10
-14.44965753341266
 20
130.4285975026005
 30
0.0
 10
-14.51582618243876
 20
130.4246842095037
 30
0.0
 10
-14.61592896870172
 20
130.4351194636988
 30
0.0
 10
-14.72371630753303
 20
130.4593293861136
 30
0.0
 10
-14.85612782167147
 20
130.5152624474541
 30
0.0
 10
-15.01642517830499
 20
130.6333270135114
 30
0.0
 10
-15.14431435927886
 20
130.8092075048858
 30
0.0
 10
-15.22784140929663
 20
131.0218738075077
 30
0.0
 10
-15.26532157354773
 20
131.22190001507
 30
0.0
 10
-15.27107109377273
 20
131.4064323755987
 30
0.0
 10
-15.25547901794778
 20
131.6119555534525
 30
0.0
 10
-15.20707514851601
 20
131.8467243983698
 30
0.0
 10
-15.12425919266621
 20
132.0658407767519
 30
0.0
 10
-15.03324582554026
 20
132.2424534481244
 30
0.0
 10
-14.93799586225272
 20
132.3919227049627
 30
0.0
 10
-14.81095828870043
 20
132.5418950961945
 30
0.0
 10
-14.64577122245569
 20
132.6804578811599
 30
0.0
 10
-14.46921100303124
 20
132.7680068122462
 30
0.0
 10
-14.28666548195975
 20
132.7849385422539
 30
0.0
 10
-14.13030186532822
 20
132.7427069007899
 30
0.0
 10
-14.01429826790904
 20
132.6467264313376
 30
0.0
 10
-13.95174236448047
 20
132.5402903067401
 30
0.0
 10
-13.91505803859333
 20
132.4443247205742
 30
0.0
 10
-13.90441928047293
 20
132.380881924789
 30
0.0
 10
-13.8978548084486
 20
132.3417355728837
 30
0.0
 11
-14.4113545272095
 21
130.430862792823
 31
0.0
 11
-14.52621132756202
 21
130.4276841605385
 31
0.0
 11
-14.6093963104211
 21
130.4359122597355
 31
0.0
 11
-14.70933450360031
 21
130.4587036273942
 31
0.0
 11
-14.84237674333429
 21
130.5149171386551
 31
0.0
 11
-14.9882844430153
 21
130.6219744177695
 31
0.0
 11
-15.1468904377106
 21
130.8347880603083
 31
0.0
 11
-15.21865476704052
 21
131.0138871546834
 31
0.0
 11
-15.261181106007
 21
131.2334705432043
 31
0.0
 11
-15.26768576318068
 21
131.4235493317256
 31
0.0
 11
-15.25737550735299
 21
131.5616718788592
 31
0.0
 11
-15.19967432801474
 21
131.8448579138581
 31
0.0
 11
-15.09769243590328
 21
132.1143431035718
 31
0.0
 11
-15.04149692942911
 21
132.2231903296065
 31
0.0
 11
-14.94172551632068
 21
132.3790080759276
 31
0.0
 11
-14.79633451340651
 21
132.548302488039
 31
0.0
 11
-14.65876912906706
 21
132.6616559921612
 31
0.0
 11
-14.43744521528483
 21
132.7634860846985
 31
0.0
 11
-14.28243065102677
 21
132.7755937991687
 31
0.0
 11
-14.14685194947701
 21
132.7379783351987
 31
0.0
 11
-14.00759083020376
 21
132.6248963049912
 31
0.0
 11
-13.9483156427534
 21
132.5268386992862
 31
0.0
 11
-13.92225144420941
 21
132.4579195943737
 31
0.0
 11
-13.8978548084486
 21
132.3417355728837
 31
0.0
  0
SPLINE
  5
156
330
1F
100
AcDbEntity
  8
0
  6
Continuous
 62
     7
100
AcDbSpline
210
0.0
220
0.0
230
1.0
 70
     8
 71
     3
 72
    17
 73
    13
 74
    11
 42
0.000000001
 43
0.0000000001
 44
0.00000001
 40
0.0
 40
0.0
 40
0.0
 40
0.0
 40
0.1282622080931429
 40
0.2830277320471903
 40
0.6092762840721165
 40
0.8382914349415216
 40
1.191774648983235
 40
1.413953020058524
 40
1.621062468225385
 40
1.93781490372208
 40
2.029107462464589
 40
2.151726271182601
 40
2.151726271182601
 40
2.151726271182601
 40
2.151726271182601
 10
-14.4113545272095
 20
130.430862792823
 30
0.0
 10
-14.43199944853109
 20
130.4683828166075
 30
0.0
 10
-14.47755521778057
 20
130.5511757787438
 30
0.0
 10
-14.54142528832039
 20
130.7450850587384
 30
0.0
 10
-14.56958973566424
 20
130.9826927888108
 30
0.0
 10
-14.54781762741261
 20
131.2856109631535
 30
0.0
 10
-14.48319689860196
 20
131.5480089817785
 30
0.0
 10
-14.38175346760935
 20
131.7890394978476
 30
0.0
 10
-14.25809376959525
 20
132.0053343772176
 30
0.0
 10
-14.12667217711695
 20
132.1654649358061
 30
0.0
 10
-13.99283213564431
 20
132.2816894688152
 30
0.0
 10
-13.93246094012093
 20
132.3198570581129
 30
0.0
 10
-13.8978548084486
 20
132.3417355728837
 30
0.0
 11
-14.4113545272095
 21
130.430862792823
 31
0.0
 11
-14.47002673347031
 21
130.5449187725112
 31
0.0
 11
-14.52020401593306
 21
130.6913244035637
 31
0.0
 11
-14.56125041515283
 21
131.0149805669524
 31
0.0
 11
-14.54572611241075
 21
131.243468933972
 31
0.0
 11
-14.46195386234837
 21
131.5868820822661
 31
0.0
 11
-14.37564267120739
 21
131.7916102092831
 31
0.0
 11
-14.27234671203763
 21
131.9711213999965
 31
0.0
 11
-14.06902054025123
 21
132.2140011533381
 31
0.0
 11
-13.99956366655665
 21
132.2732470302827
 31
0.0
 11
-13.8978548084486
 21
132.3417355728837
 31
0.0
  0
SPLINE
  5
157
330
1F
100
AcDbEntity
  8
0
  6
Continuous
 62
     7
100
AcDbSpline
210
0.0
220
0.0
230
1.0
 70
     8
 71
     3
 72
    11
 73
     7
 74
     5
 42
0.000000001
 43
0.0000000001
 44
0.00000001
 40
0.0
 40
0.0
 40
0.0
 40
0.0
 40
0.3258561481356677
 40
0.752303196631841
 40
1.249050242403003
 40
1.725191528911739
 40
1.725191528911739
 40
1.725191528911739
 40
1.725191528911739
 10
-8.485234366665637
 20
129.6276922356956
 30
0.0
 10
-8.597113410199434
 20
129.6436021377026
 30
0.0
 10
-8.855408250982366
 20
129.6803332696168
 30
0.0
 10
-9.197015585655834
 20
129.381679942149
 30
0.0
 10
-9.457201172393827
 20
128.9901470476088
 30
0.0
 10
-9.502132748814214
 20
128.6640868419191
 30
0.0
 10
-9.524122705683496
 20
128.5045097122617
 30
0.0
 11
-8.485234366665637
 21
129.6276922356956
 31
0.0
 11
-8.811013366014869
 21
129.6347827794119
 31
0.0
 11
-9.160541108760683
 21
129.3904726259444
 31
0.0
 11
-9.425586794102625
 21
128.9703435823683
 31
0.0
 11
-9.524122705683496
 21
128.5045097122617
 31
0.0
  0
SPLINE
  5
158
330
1F
100
AcDbEntity
  8
0
  6
Continuous
 62
     7
100
AcDbSpline
210
0.0
220
0.0
230
1.0
 70
     8
 71
     3
 72
    23
 73
    19
 74
    17
 42
0.000000001
 43
0.0000000001
 44
0.00000001
 40
0.0
 40
0.0
 40
0.0
 40
0.0
 40
0.0560029918885195
 40
0.1021739555555527
 40
0.1363374963132311
 40
0.2382515399317396
 40
0.346319748735219
 40
0.4832945897113474
 40
0.6566819699505722
 40
0.8492705782116766
 40
0.9482141833425325
 40
1.093616763566731
 40
1.275092650658793
 40
1.453169769315151
 40
1.5891344267557
 40
1.679263476717979
 40
1.723931622341289
 40
1.765501566334524
 40
1.765501566334524
 40
1.765501566334524
 40
1.765501566334524
 10
-12.08934164318193
 20
131.3179424750787
 30
0.0
 10
-12.0964166034883
 20
131.3352958011098
 30
0.0
 10
-12.10932442752247
 20
131.3669558575182
 30
0.0
 10
-12.14097049731925
 20
131.4017099096068
 30
0.0
 10
-12.19867042510433
 20
131.4251473334164
 30
0.0
 10
-12.28372583613465
 20
131.4060013790337
 30
0.0
 10
-12.38408813315332
 20
131.349601046185
 30
0.0
 10
-12.49037609768312
 20
131.257274007042
 30
0.0
 10
-12.59680105501929
 20
131.1270586638247
 30
0.0
 10
-12.67642212620726
 20
130.9933947113005
 30
0.0
 10
-12.7380666038663
 20
130.8613612187568
 30
0.0
 10
-12.78749798004297
 20
130.7280625517745
 30
0.0
 10
-12.82897606601095
 20
130.5645110440684
 30
0.0
 10
-12.84948415767928
 20
130.4001420602675
 30
0.0
 10
-12.84978090807566
 20
130.2651087472092
 30
0.0
 10
-12.84057053892747
 20
130.1752171267121
 30
0.0
 10
-12.83077915291964
 20
130.1172177069675
 30
0.0
 10
-12.824290088673
 20
130.0892079953103
 30
0.0
 10
-12.82116211418834
 20
130.075706281179
 30
0.0
 11
-12.08934164318193
 21
131.3179424750787
 31
0.0
 11
-12.11381367466845
 21
131.3683156414783
 31
0.0
 11
-12.14599950071816
 21
131.4014189712354
 31
0.0
 11
-12.17749318608898
 21
131.4146588824549
 31
0.0
 11
-12.27865780532707
 21
131.4023222723401
 31
0.0
 11
-12.37404654592958
 21
131.3515312705988
 31
0.0
 11
-12.47856267364352
 21
131.2629960455337
 31
0.0
 11
-12.58942404205241
 21
131.1296808527976
 31
0.0
 11
-12.68862068145667
 21
130.9646039047515
 31
0.0
 11
-12.730510384374
 21
130.8749652423827
 31
0.0
 11
-12.78111508857073
 21
130.7386528281893
 31
0.0
 11
-12.82552228560284
 21
130.5626940305367
 31
0.0
 11
-12.84712200284558
 21
130.3859317256824
 31
0.0
 11
-12.84697319933813
 21
130.2499671497787
 31
0.0
 11
-12.8377284410134
 21
130.1603134828198
 31
0.0
 11
-12.83015070100181
 21
130.1162927946315
 31
0.0
 11
-12.82116211418834
 21
130.075706281179
 31
0.0
  0
SPLINE
  5
159
330
1F
100
AcDbEntity
  8
0
  6
Continuous
 62
     7
100
AcDbSpline
210
0.0
220
0.0
230
1.0
 70
     8
 71
     3
 72
    19
 73
    15
 74
    13
 42
0.000000001
 43
0.0000000001
 44
0.00000001
 40
0.0
 40
0.0
 40
0.0
 40
0.0
 40
0.091702120841154
 40
0.1226805676113855
 40
0.1951653467075646
 40
0.2869358125146105
 40
0.4188028774251202
 40
0.57840939794448
 40
0.8207396930869335
 40
0.9774392536323953
 40
1.146549711588912
 40
1.400557038888015
 40
1.587574091775216
 40
1.760170120078466
 40
1.760170120078466
 40
1.760170120078466
 40
1.760170120078466
 10
-12.79794710684875
 20
131.6757044059473
 30
0.0
 10
-12.81103391646808
 20
131.7049964271612
 30
0.0
 10
-12.82854165643514
 20
131.7441837630374
 30
0.0
 10
-12.88859210017643
 20
131.7741305947463
 30
0.0
 10
-12.95666297300825
 20
131.7691801022011
 30
0.0
 10
-13.04830577837594
 20
131.7313203141399
 30
0.0
 10
-13.15215385946831
 20
131.6546641459009
 30
0.0
 10
-13.27401669737934
 20
131.5241638452146
 30
0.0
 10
-13.37538688303575
 20
131.36639343472
 30
0.0
 10
-13.45486944337491
 20
131.1942405628786
 30
0.0
 10
-13.51689384274491
 20
131.0107231931713
 30
0.0
 10
-13.55396769092725
 20
130.8098974214498
 30
0.0
 10
-13.5606727029243
 20
130.6041294122115
 30
0.0
 10
-13.53877559681907
 20
130.4859712913764
 30
0.0
 10
-13.52826609177454
 20
130.4292613907846
 30
0.0
 11
-12.79794710684875
 21
131.6757044059473
 31
0.0
 11
-12.84851628974604
 21
131.7522030212751
 31
0.0
 11
-12.87620106864809
 21
131.7661032765153
 31
0.0
 11
-12.94868527688067
 21
131.7663906018343
 31
0.0
 11
-13.03444680674183
 21
131.733729029841
 31
0.0
 11
-13.14209105739531
 21
131.6575605452885
 31
0.0
 11
-13.25216346504418
 21
131.5419824053274
 31
0.0
 11
-13.38480911348243
 21
131.3391792892456
 31
0.0
 11
-13.45065160177227
 21
131.1969839341259
 31
0.0
 11
-13.50468899156506
 21
131.0367394100375
 31
0.0
 11
-13.55074742809138
 21
130.7869428074029
 31
0.0
 11
-13.55384541487995
 21
130.5999514165661
 31
0.0
 11
-13.52826609177454
 21
130.4292613907846
 31
0.0
  0
SPLINE
  5
15A
330
1F
100
AcDbEntity
  8
0
  6
Continuous
 62
     7
100
AcDbSpline
210
0.0
220
0.0
230
1.0
 70
     8
 71
     3
 72
    24
 73
    20
 74
    18
 42
0.000000001
 43
0.0000000001
 44
0.00000001
 40
0.0
 40
0.0
 40
0.0
 40
0.0
 40
0.0375723632534543
 40
0.0697151556283764
 40
0.1131322167301697
 40
0.189934353526254
 40
0.2256364678584241
 40
0.2942657136667075
 40
0.3985111191423915
 40
0.5373551703450643
 40
0.6552183245939982
 40
0.7340393131526323
 40
0.8286332760895206
 40
0.9700259211967852
 40
1.14953703133555
 40
1.363479025383611
 40
1.5685214042636
 40
1.666001129947525
 40
1.758534896400232
 40
1.758534896400232
 40
1.758534896400232
 40
1.758534896400232
 10
-11.38480222425503
 20
130.9714703576259
 30
0.0
 10
-11.38971867219442
 20
130.9830256689062
 30
0.0
 10
-11.39884109590123
 20
131.0044664354779
 30
0.0
 10
-11.42083022398113
 20
131.0354200448112
 30
0.0
 10
-11.46327259759209
 20
131.0667937672408
 30
0.0
 10
-11.51930839757381
 20
131.0646666064403
 30
0.0
 10
-11.57707272859143
 20
131.0483496537326
 30
0.0
 10
-11.6404007833112
 20
131.0181542006142
 30
0.0
 10
-11.72512043042436
 20
130.9572917080955
 30
0.0
 10
-11.81040655953562
 20
130.8716404517477
 30
0.0
 10
-11.87902984658566
 20
130.783104730013
 30
0.0
 10
-11.93213229046615
 20
130.7017506767619
 30
0.0
 10
-11.98376366092288
 20
130.6103050642526
 30
0.0
 10
-12.04172420135344
 20
130.484275523755
 30
0.0
 10
-12.09884590063808
 20
130.3149801018641
 30
0.0
 10
-12.13789388182046
 20
130.1185802103304
 30
0.0
 10
-12.14497409658248
 20
129.9458168950746
 30
0.0
 10
-12.13372649718767
 20
129.8143293750546
 30
0.0
 10
-12.12049385442466
 20
129.7523340021318
 30
0.0
 10
-12.11404974694879
 20
129.7221431715346
 30
0.0
 11
-11.38480222425503
 21
130.9714703576259
 31
0.0
 11
-11.40083768456366
 21
131.0054489868574
 31
0.0
 11
-11.41979013668551
 21
131.0314097963749
 31
0.0
 11
-11.45524006712577
 21
131.0564765773316
 31
0.0
 11
-11.53195676753789
 21
131.0600981680285
 31
0.0
 11
-11.56638538008236
 21
131.0506476872622
 31
0.0
 11
-11.62871960253043
 21
131.0219350061951
 31
0.0
 11
-11.71413006313951
 21
130.9621674753374
 31
0.0
 11
-11.81297908528531
 21
130.864665981223
 31
0.0
 11
-11.88544585933716
 21
130.7717128221292
 31
0.0
 11
-11.92860116834935
 21
130.7057555060653
 31
0.0
 11
-11.97515879013634
 21
130.6234122872761
 31
0.0
 11
-12.03436987023253
 21
130.495014747994
 31
0.0
 11
-12.09176513241876
 21
130.3249264692731
 31
0.0
 11
-12.13284473203972
 21
130.1149654173665
 31
0.0
 11
-12.14058681339343
 21
129.9100692554168
 31
0.0
 11
-12.13152685462539
 21
129.8130114691587
 31
0.0
 11
-12.11404974694879
 21
129.7221431715346
 31
0.0
  0
SPLINE
  5
15B
330
1F
100
AcDbEntity
  8
0
  6
Continuous
 62
     7
100
AcDbSpline
210
0.0
220
0.0
230
1.0
 70
     8
 71
     3
 72
    11
 73
     7
 74
     5
 42
0.000000001
 43
0.0000000001
 44
0.00000001
 40
0.0
 40
0.0
 40
0.0
 40
0.0
 40
0.4525779852816922
 40
1.044865556679689
 40
1.734792009567126
 40
2.396099350180816
 40
2.396099350180816
 40
2.396099350180816
 40
2.396099350180816
 10
-10.66216198615626
 20
131.1074679415034
 30
0.0
 10
-10.81754954722412
 20
131.1295650277102
 30
0.0
 10
-11.17629238385864
 20
131.1805804949235
 30
0.0
 10
-11.65074701485251
 20
130.7657841994697
 30
0.0
 10
-12.01211588815551
 20
130.2219885139787
 30
0.0
 10
-12.07452085033277
 20
129.769127116224
 30
0.0
 10
-12.10506245701441
 20
129.5474922145119
 30
0.0
 11
-10.66216198615626
 21
131.1074679415034
 31
0.0
 11
-11.11463281858574
 21
131.1173159188872
 31
0.0
 11
-11.60008801684381
 21
130.7779962612934
 31
0.0
 11
-11.96820702426318
 21
130.194483700771
 31
0.0
 11
-12.10506245701441
 21
129.5474922145119
 31
0.0
  0
SPLINE
  5
15C
330
1F
100
AcDbEntity
  8
0
  6
Continuous
 62
     7
100
AcDbSpline
210
0.0
220
0.0
230
1.0
 70
     8
 71
     3
 72
    11
 73
     7
 74
     5
 42
0.000000001
 43
0.0000000001
 44
0.00000001
 40
0.0
 40
0.0
 40
0.0
 40
0.0
 40
0.4525779852816882
 40
1.044865556679698
 40
1.734792009567205
 40
2.396099350180865
 40
2.396099350180865
 40
2.396099350180865
 40
2.396099350180865
 10
-10.41467461274097
 20
130.9837242547957
 30
0.0
 10
-10.57006217380883
 20
131.0058213410025
 30
0.0
 10
-10.92880501044334
 20
131.0568368082159
 30
0.0
 10
-11.40325964143725
 20
130.6420405127621
 30
0.0
 10
-11.7646285147402
 20
130.0982448272709
 30
0.0
 10
-11.82703347691748
 20
129.6453834295164
 30
0.0
 10
-11.85757508359912
 20
129.4237485278042
 30
0.0
 11
-10.41467461274097
 21
130.9837242547957
 31
0.0
 11
-10.86714544517045
 21
130.9935722321795
 31
0.0
 11
-11.35260064342853
 21
130.6542525745858
 31
0.0
 11
-11.7207196508479
 21
130.0707400140633
 31
0.0
 11
-11.85757508359912
 21
129.4237485278042
 31
0.0
  0
SPLINE
  5
15D
330
1F
100
AcDbEntity
  8
0
  6
Continuous
 62
     7
100
AcDbSpline
210
0.0
220
0.0
230
1.0
 70
     8
 71
     3
 72
    11
 73
     7
 74
     5
 42
0.000000001
 43
0.0000000001
 44
0.00000001
 40
0.0
 40
0.0
 40
0.0
 40
0.0
 40
0.3258561481356766
 40
0.7523031966318543
 40
1.249050242403011
 40
1.725191528911718
 40
1.725191528911718
 40
1.725191528911718
 40
1.725191528911718
 10
-10.32371199775066
 20
130.5469310512381
 30
0.0
 10
-10.43559104128446
 20
130.5628409532451
 30
0.0
 10
-10.6938858820674
 20
130.5995720851593
 30
0.0
 10
-11.03549321674087
 20
130.3009187576914
 30
0.0
 10
-11.29567880347885
 20
129.9093858631513
 30
0.0
 10
-11.34061037989924
 20
129.5833256574616
 30
0.0
 10
-11.36260033676852
 20
129.4237485278042
 30
0.0
 11
-10.32371199775066
 21
130.5469310512381
 31
0.0
 11
-10.6494909970999
 21
130.5540215949544
 31
0.0
 11
-10.99901873984572
 21
130.3097114414869
 31
0.0
 11
-11.26406442518765
 21
129.8895823979108
 31
0.0
 11
-11.36260033676852
 21
129.4237485278042
 31
0.0
  0
SPLINE
  5
15E
330
1F
100
AcDbEntity
  8
0
  6
Continuous
 62
     7
100
AcDbSpline
210
0.0
220
0.0
230
1.0
 70
     8
 71
     3
 72
    26
 73
    22
 74
    20
 42
0.000000001
 43
0.0000000001
 44
0.00000001
 40
0.0
 40
0.0
 40
0.0
 40
0.0
 40
0.0231654373961745
 40
0.0447337781188119
 40
0.0929085320207152
 40
0.1313075846470626
 40
0.167863274715997
 40
0.2541987464966024
 40
0.3723493215322805
 40
0.5029313732820522
 40
0.6145346570659256
 40
0.6891208697696404
 40
0.8238156190686056
 40
0.9416328871416767
 40
1.037000178667007
 40
1.103591510874614
 40
1.283012504964936
 40
1.422828114080291
 40
1.516883257039365
 40
1.645663259156432
 40
1.76666451716694
 40
1.76666451716694
 40
1.76666451716694
 40
1.76666451716694
 10
-13.50350199966432
 20
132.0250226533199
 30
0.0
 10
-13.50621516266904
 20
132.0322623884358
 30
0.0
 10
-13.51145443764835
 20
132.0462427277438
 30
0.0
 10
-13.52564092272472
 20
132.0737624387065
 30
0.0
 10
-13.54789504927994
 20
132.1032809859617
 30
0.0
 10
-13.58546697559099
 20
132.1229008871172
 30
0.0
 10
-13.6399641884886
 20
132.1269306548112
 30
0.0
 10
-13.7188495131167
 20
132.1038090574224
 30
0.0
 10
-13.81441227105965
 20
132.0445252049428
 30
0.0
 10
-13.90335365601363
 20
131.9629806621796
 30
0.0
 10
-13.9715726620958
 20
131.8821487435728
 30
0.0
 10
-14.03367584053421
 20
131.7949933138875
 30
0.0
 10
-14.08956228341661
 20
131.7011347769262
 30
0.0
 10
-14.13983020134124
 20
131.5965098340374
 30
0.0
 10
-14.17422365798246
 20
131.5097527764838
 30
0.0
 10
-14.21038246950847
 20
131.4018331473408
 30
0.0
 10
-14.24141985332374
 20
131.2766761868662
 30
0.0
 10
-14.25975618582759
 20
131.139868059826
 30
0.0
 10
-14.26476178404842
 20
131.019049521224
 30
0.0
 10
-14.26005580173651
 20
130.9040839845831
 30
0.0
 10
-14.24342799977027
 20
130.8223892565921
 30
0.0
 10
-14.23537300632124
 20
130.7828139713948
 30
0.0
 11
-13.50350199966432
 21
132.0250226533199
 31
0.0
 11
-13.51206822247824
 21
132.0465460772465
 31
0.0
 11
-13.5219324501236
 21
132.0657265446267
 31
0.0
 11
-13.55257021383303
 21
132.1029036105103
 31
0.0
 11
-13.58667355091179
 21
132.1205515443642
 31
0.0
 11
-13.62302903545323
 21
132.1243721698947
 31
0.0
 11
-13.7069041400426
 21
132.1039080444601
 31
0.0
 11
-13.8087130669979
 21
132.0439538892886
 31
0.0
 11
-13.90582231038576
 21
131.9566528751373
 31
0.0
 11
-13.97808492682254
 21
131.8716034353002
 31
0.0
 11
-14.02143963908158
 21
131.8109118209533
 31
0.0
 11
-14.0905521719123
 21
131.6952998263192
 31
0.0
 11
-14.14166997890356
 21
131.5891495626701
 31
0.0
 11
-14.17680580281335
 21
131.5004906986105
 31
0.0
 11
-14.19797238639963
 21
131.4373529027445
 31
0.0
 11
-14.24096784184326
 21
131.2631596653922
 31
0.0
 11
-14.25923171293639
 21
131.1245420779584
 31
0.0
 11
-14.26319117910468
 21
131.0305703135232
 31
0.0
 11
-14.25643817903909
 21
130.9019674920166
 31
0.0
 11
-14.23537300632124
 21
130.7828139713948
 31
0.0
  0
SPLINE
  5
15F
330
1F
100
AcDbEntity
  8
0
  6
Continuous
 62
     7
100
AcDbSpline
210
0.0
220
0.0
230
1.0
 70
     8
 71
     3
 72
    11
 73
     7
 74
     5
 42
0.000000001
 43
0.0000000001
 44
0.00000001
 40
0.0
 40
0.0
 40
0.0
 40
0.0
 40
0.4525779852816863
 40
1.044865556679667
 40
1.734792009567123
 40
2.396099350180786
 40
2.396099350180786
 40
2.396099350180786
 40
2.396099350180786
 10
-14.19769589208831
 20
132.8752348944694
 30
0.0
 10
-14.35308345315617
 20
132.8973319806762
 30
0.0
 10
-14.71182628979067
 20
132.9483474478895
 30
0.0
 10
-15.18628092078457
 20
132.5335511524357
 30
0.0
 10
-15.54764979408752
 20
131.9897554669446
 30
0.0
 10
-15.61005475626481
 20
131.53689406919
 30
0.0
 10
-15.64059636294645
 20
131.3152591674779
 30
0.0
 11
-14.19769589208831
 21
132.8752348944694
 31
0.0
 11
-14.65016672451778
 21
132.8850828718531
 31
0.0
 11
-15.13562192277585
 21
132.5457632142594
 31
0.0
 11
-15.50374093019522
 21
131.962250653737
 31
0.0
 11
-15.64059636294645
 21
131.3152591674779
 31
0.0
  0
SPLINE
  5
160
330
1F
100
AcDbEntity
  8
0
  6
Continuous
 62
     7
100
AcDbSpline
210
0.0
220
0.0
230
1.0
 70
     8
 71
     3
 72
     9
 73
     5
 74
     3
 42
0.000000001
 43
0.0000000001
 44
0.00000001
 40
0.0
 40
0.0
 40
0.0
 40
0.0
 40
0.3259746786132274
 40
0.744768408835006
 40
0.744768408835006
 40
0.744768408835006
 40
0.744768408835006
 10
-16.92959198209012
 20
131.5579013664705
 30
0.0
 10
-17.01389453226231
 20
131.6325314235972
 30
0.0
 10
-17.20650418952365
 20
131.8030419456744
 30
0.0
 10
-17.22487829110521
 20
132.0627072489129
 30
0.0
 10
-17.23521029640155
 20
132.2087206975986
 30
0.0
 11
-16.92959198209012
 21
131.5579013664705
 31
0.0
 11
-17.14912149637585
 21
131.798870835839
 31
0.0
 11
-17.23521029640155
 21
132.2087206975986
 31
0.0
  0
SPLINE
  5
161
330
1F
100
AcDbEntity
  8
0
  6
Continuous
 62
     7
100
AcDbSpline
210
0.0
220
0.0
230
1.0
 70
     8
 71
     3
 72
     9
 73
     5
 74
     3
 42
0.000000001
 43
0.0000000001
 44
0.00000001
 40
0.0
 40
0.0
 40
0.0
 40
0.0
 40
0.0264546140679662
 40
0.0526488669148412
 40
0.0526488669148412
 40
0.0526488669148412
 40
0.0526488669148412
 10
-17.38395414676863
 20
132.336772411884
 30
0.0
 10
-17.38444919217438
 20
132.3279675410799
 30
0.0
 10
-17.38543439086669
 20
132.3104444543974
 30
0.0
 10
-17.38588535849598
 20
132.2928995024076
 30
0.0
 10
-17.38610971729578
 20
132.2841704080457
 30
0.0
 11
-17.38395414676863
 21
132.336772411884
 31
0.0
 11
-17.3853043909191
 21
132.3103522784325
 31
0.0
 11
-17.38610971729578
 21
132.2841704080457
 31
0.0
  0
SPLINE
  5
162
330
1F
100
AcDbEntity
  8
0
  6
Continuous
 62
     7
100
AcDbSpline
210
0.0
220
0.0
230
1.0
 70
     8
 71
     3
 72
     9
 73
     5
 74
     3
 42
0.000000001
 43
0.0000000001
 44
0.00000001
 40
0.0
 40
0.0
 40
0.0
 40
0.0
 40
0.4780516970191431
 40
0.8247799035218799
 40
0.8247799035218799
 40
0.8247799035218799
 40
0.8247799035218799
 10
-19.19819750732138
 20
132.6692565729238
 30
0.0
 10
-19.17983388635163
 20
132.5003444405054
 30
0.0
 10
-19.14815121774494
 20
132.2089212971196
 30
0.0
 10
-18.9067835122573
 20
132.0528206460592
 30
0.0
 10
-18.80531523446983
 20
131.9871976914847
 30
0.0
 11
-19.19819750732138
 21
132.6692565729238
 31
0.0
 11
-19.07266311695718
 21
132.2079816605866
 31
0.0
 11
-18.80531523446983
 21
131.9871976914847
 31
0.0
  0
SPLINE
  5
163
330
1F
100
AcDbEntity
  8
0
  6
Continuous
 62
     7
100
AcDbSpline
210
0.0
220
0.0
230
1.0
 70
     8
 71
     3
 72
     9
 73
     5
 74
     3
 42
0.000000001
 43
0.0000000001
 44
0.00000001
 40
0.0
 40
0.0
 40
0.0
 40
0.0
 40
0.1629197711244514
 40
0.3053384901742979
 40
0.3053384901742979
 40
0.3053384901742979
 40
0.3053384901742979
 10
-15.32239831141247
 20
131.4743581932449
 30
0.0
 10
-15.32016913884765
 20
131.4195066537065
 30
0.0
 10
-15.31599128275939
 20
131.31670583601
 30
0.0
 10
-15.27405466206132
 20
131.2229345769136
 30
0.0
 10
-15.25449419823362
 20
131.1791969474277
 30
0.0
 11
-15.32239831141247
 21
131.4743581932449
 31
0.0
 11
-15.30496093644184
 21
131.3123742736983
 31
0.0
 11
-15.25449419823362
 21
131.1791969474277
 31
0.0
  0
SPLINE
  5
164
330
1F
100
AcDbEntity
  8
0
  6
Continuous
 62
     7
100
AcDbSpline
210
0.0
220
0.0
230
1.0
 70
     8
 71
     3
 72
     9
 73
     5
 74
     3
 42
0.000000001
 43
0.0000000001
 44
0.00000001
 40
0.0
 40
0.0
 40
0.0
 40
0.0
 40
0.3922190928914256
 40
0.7695778399498764
 40
0.7695778399498764
 40
0.7695778399498764
 40
0.7695778399498764
 10
-15.06260365502241
 20
132.188540451298
 30
0.0
 10
-15.13562487274207
 20
132.077618686355
 30
0.0
 10
-15.27890067196247
 20
131.8599777378116
 30
0.0
 10
-15.30808696432099
 20
131.6012326096244
 30
0.0
 10
-15.32239831141247
 20
131.4743581932449
 30
0.0
 11
-15.06260365502241
 21
132.188540451298
 31
0.0
 11
-15.25203276846334
 21
131.8450984197328
 31
0.0
 11
-15.32239831141247
 21
131.4743581932449
 31
0.0
  0
SPLINE
  5
165
330
1F
100
AcDbEntity
  8
0
  6
Continuous
 62
     7
100
AcDbSpline
210
0.0
220
0.0
230
1.0
 70
     8
 71
     3
 72
    23
 73
    19
 74
    17
 42
0.000000001
 43
0.0000000001
 44
0.00000001
 40
0.0
 40
0.0
 40
0.0
 40
0.0
 40
0.0999324784077257
 40
0.2035822767198811
 40
0.3054693877433785
 40
0.4359685357393068
 40
0.5674385828852657
 40
0.8038351195540222
 40
1.05982418442977
 40
1.223171832519279
 40
1.473026438256057
 40
1.626352252286416
 40
1.800587551848909
 40
1.958121736758392
 40
2.140353519244227
 40
2.256831156068654
 40
2.316030513333628
 40
2.371975078923923
 40
2.371975078923923
 40
2.371975078923923
 40
2.371975078923923
 10
-14.21477610785301
 20
132.3896739878072
 30
0.0
 10
-14.23210794491084
 20
132.4214948585224
 30
0.0
 10
-14.26741632464262
 20
132.4863202882048
 30
0.0
 10
-14.38503885176041
 20
132.475312290248
 30
0.0
 10
-14.48275567872063
 20
132.4249643843895
 30
0.0
 10
-14.57925628796268
 20
132.34876541713
 30
0.0
 10
-14.6911628405673
 20
132.2257604555136
 30
0.0
 10
-14.80502926657102
 20
132.0500904472335
 30
0.0
 10
-14.89119590602187
 20
131.8480599430695
 30
0.0
 10
-14.95006984182851
 20
131.6325895172295
 30
0.0
 10
-14.97415352501531
 20
131.4440407946361
 30
0.0
 10
-14.9674265210005
 20
131.2512159400384
 30
0.0
 10
-14.93614881757356
 20
131.091467721351
 30
0.0
 10
-14.86842271171182
 20
130.9327155272253
 30
0.0
 10
-14.76707623445639
 20
130.8135193013465
 30
0.0
 10
-14.66045391414193
 20
130.7562116118884
 30
0.0
 10
-14.58597289981691
 20
130.7346857485628
 30
0.0
 10
-14.54779720092456
 20
130.7302265448041
 30
0.0
 10
-14.52924890987664
 20
130.728059973427
 30
0.0
 11
-14.21477610785301
 21
132.3896739878072
 31
0.0
 11
-14.27715238212201
 21
132.4677489623248
 31
0.0
 11
-14.3807905587049
 21
132.4693009005081
 31
0.0
 11
-14.47329298329649
 21
132.4265892544065
 31
0.0
 11
-14.57635498099204
 21
132.3465376948332
 31
0.0
 11
-14.66562727525605
 21
132.2500243240025
 31
0.0
 11
-14.79565188373543
 21
132.0525985816909
 31
0.0
 11
-14.8965830086428
 21
131.8173469943381
 31
0.0
 11
-14.93952315663672
 21
131.6597443364209
 31
0.0
 11
-14.96987089952272
 21
131.4117396226756
 31
0.0
 11
-14.96387875833737
 21
131.2585309447775
 31
0.0
 11
-14.9289151872932
 21
131.087839740141
 31
0.0
 11
-14.8650761889741
 21
130.9438202927859
 31
0.0
 11
-14.74404640306132
 21
130.8075844173913
 31
0.0
 11
-14.64156333850598
 21
130.7522286425467
 31
0.0
 11
-14.58462239986828
 21
130.7360331592702
 31
0.0
 11
-14.52924890987664
 21
130.728059973427
 31
0.0
  0
SPLINE
  5
166
330
1F
100
AcDbEntity
  8
0
  6
Continuous
 62
     7
100
AcDbSpline
210
0.0
220
0.0
230
1.0
 70
     8
 71
     3
 72
     9
 73
     5
 74
     3
 42
0.000000001
 43
0.0000000001
 44
0.00000001
 40
0.0
 40
0.0
 40
0.0
 40
0.0
 40
0.4299482905644836
 40
0.7795822334796888
 40
0.7795822334796888
 40
0.7795822334796888
 40
0.7795822334796888
 10
-16.13557110977702
 20
131.5627465408932
 30
0.0
 10
-16.12635395248746
 20
131.4123375965052
 30
0.0
 10
-16.10964138550713
 20
131.1396161076983
 30
0.0
 10
-15.90326302775012
 20
130.9649776756192
 30
0.0
 10
-15.81070462766878
 20
130.8866542903849
 30
0.0
 11
-16.13557110977702
 21
131.5627465408932
 31
0.0
 11
-16.05023001877111
 21
131.1413530987272
 31
0.0
 11
-15.81070462766878
 21
130.8866542903849
 31
0.0
  0
SPLINE
  5
167
330
1F
100
AcDbEntity
  8
0
  6
Continuous
 62
     7
100
AcDbSpline
210
0.0
220
0.0
230
1.0
 70
     8
 71
     3
 72
     9
 73
     5
 74
     3
 42
0.000000001
 43
0.0000000001
 44
0.00000001
 40
0.0
 40
0.0
 40
0.0
 40
0.0
 40
0.429948290564484
 40
0.7795822334797244
 40
0.7795822334797244
 40
0.7795822334797244
 40
0.7795822334797244
 10
-15.64059636294645
 20
131.3152591674779
 30
0.0
 10
-15.63137920565689
 20
131.1648502230899
 30
0.0
 10
-15.61466663867656
 20
130.8921287342829
 30
0.0
 10
-15.40828828091953
 20
130.7174903022039
 30
0.0
 10
-15.31572988083819
 20
130.6391669169696
 30
0.0
 11
-15.64059636294645
 21
131.3152591674779
 31
0.0
 11
-15.55525527194054
 21
130.8938657253119
 31
0.0
 11
-15.31572988083819
 21
130.6391669169696
 31
0.0
  0
SPLINE
  5
168
330
1F
100
AcDbEntity
  8
0
  6
Continuous
 62
     7
100
AcDbSpline
210
0.0
220
0.0
230
1.0
 70
     8
 71
     3
 72
     9
 73
     5
 74
     3
 42
0.000000001
 43
0.0000000001
 44
0.00000001
 40
0.0
 40
0.0
 40
0.0
 40
0.0
 40
0.3362100084933201
 40
0.6315658276878832
 40
0.6315658276878832
 40
0.6315658276878832
 40
0.6315658276878832
 10
-13.88222211033535
 20
132.3504314275097
 30
0.0
 10
-13.90394415991329
 20
132.4649216587095
 30
0.0
 10
-13.94474874520617
 20
132.6799899584013
 30
0.0
 10
-14.11709639767982
 20
132.81302173481
 30
0.0
 10
-14.19769589208831
 20
132.8752348944694
 30
0.0
 11
-13.88222211033535
 21
132.3504314275097
 31
0.0
 11
-13.98466621628261
 21
132.6706538137014
 31
0.0
 11
-14.19769589208831
 21
132.8752348944694
 31
0.0
  0
SPLINE
  5
169
330
1F
100
AcDbEntity
  8
0
  6
Continuous
 62
     7
100
AcDbSpline
210
0.0
220
0.0
230
1.0
 70
     8
 71
     3
 72
     9
 73
     5
 74
     3
 42
0.000000001
 43
0.0000000001
 44
0.00000001
 40
0.0
 40
0.0
 40
0.0
 40
0.0
 40
0.025951576930021
 40
0.0521802336035398
 40
0.0521802336035398
 40
0.0521802336035398
 40
0.0521802336035398
 10
-14.63118962639821
 20
130.748609738702
 30
0.0
 10
-14.62404605908546
 20
130.7534893622076
 30
0.0
 10
-14.60968266548199
 20
130.763300724372
 30
0.0
 10
-14.59562638804615
 20
130.7735472589121
 30
0.0
 10
-14.58856093538525
 20
130.7786977391806
 30
0.0
 11
-14.63118962639821
 21
130.748609738702
 31
0.0
 11
-14.6098348958855
 21
130.763356258128
 31
0.0
 11
-14.58856093538525
 21
130.7786977391806
 31
0.0
  0
SPLINE
  5
16A
330
1F
100
AcDbEntity
  8
0
  6
Continuous
 62
     7
100
AcDbSpline
210
0.0
220
0.0
230
1.0
 70
     8
 71
     3
 72
     9
 73
     5
 74
     3
 42
0.000000001
 43
0.0000000001
 44
0.00000001
 40
0.0
 40
0.0
 40
0.0
 40
0.0
 40
0.1751460071975184
 40
0.3577871704217679
 40
0.3577871704217679
 40
0.3577871704217679
 40
0.3577871704217679
 10
-15.31572988083819
 20
130.6391669169696
 30
0.0
 10
-15.26017417194845
 20
130.6182153699818
 30
0.0
 10
-15.14668531265723
 20
130.5754156996859
 30
0.0
 10
-15.02646633379058
 20
130.5922708567493
 30
0.0
 10
-14.96509763175909
 20
130.6008749915757
 30
0.0
 11
-15.31572988083819
 21
130.6391669169696
 31
0.0
 11
-15.14744997665308
 21
130.5906076925891
 31
0.0
 11
-14.96509763175909
 21
130.6008749915757
 31
0.0
  0
SPLINE
  5
16B
330
1F
100
AcDbEntity
  8
0
  6
Continuous
 62
     7
100
AcDbSpline
210
0.0
220
0.0
230
1.0
 70
     8
 71
     3
 72
    15
 73
    11
 74
     9
 42
0.000000001
 43
0.0000000001
 44
0.00000001
 40
0.0
 40
0.0
 40
0.0
 40
0.0
 40
0.098075252237397
 40
0.2018479400906369
 40
0.3846835839242576
 40
0.4938901262097637
 40
0.6045901946300869
 40
0.7884862641727904
 40
0.878318940077436
 40
0.9638936197738899
 40
0.9638936197738899
 40
0.9638936197738899
 40
0.9638936197738899
 10
-13.8978548084486
 20
132.3417355728837
 30
0.0
 10
-13.86883578717124
 20
132.3569304378526
 30
0.0
 10
-13.80911195119375
 20
132.3882028624734
 30
0.0
 10
-13.68573685455357
 20
132.425374219576
 30
0.0
 10
-13.5496293260266
 20
132.4282870835473
 30
0.0
 10
-13.42196885891132
 20
132.3812529770898
 30
0.0
 10
-13.31246517601337
 20
132.2999133334216
 30
0.0
 10
-13.24189727114808
 20
132.1883277354936
 30
0.0
 10
-13.20432874043592
 20
132.0742490231963
 30
0.0
 10
-13.19520127673829
 20
132.0164032360359
 30
0.0
 10
-13.19074833583825
 20
131.9881824415705
 30
0.0
 11
-13.8978548084486
 21
132.3417355728837
 31
0.0
 11
-13.80961435688938
 21
132.3845418621814
 31
0.0
 11
-13.71022404530304
 21
132.4143803788429
 31
0.0
 11
-13.52738855405394
 21
132.4146187100516
 31
0.0
 11
-13.42492594705711
 21
132.3768366590956
 31
0.0
 11
-13.33595914865698
 21
132.3109624284279
 31
0.0
 11
-13.23439127227381
 21
132.1576596825446
 31
0.0
 11
-13.2062999517109
 21
132.0723321508709
 31
0.0
 11
-13.19074833583825
 21
131.9881824415705
 31
0.0
  0
SPLINE
  5
16C
330
1F
100
AcDbEntity
  8
0
  6
Continuous
 62
     7
100
AcDbSpline
210
0.0
220
0.0
230
1.0
 70
     8
 71
     3
 72
    13
 73
     9
 74
     7
 42
0.000000001
 43
0.0000000001
 44
0.00000001
 40
0.0
 40
0.0
 40
0.0
 40
0.0
 40
0.1424050342671405
 40
0.228783860584617
 40
0.4055660370033677
 40
0.5123559167929145
 40
0.6564029196717418
 40
0.769258260223239
 40
0.769258260223239
 40
0.769258260223239
 40
0.769258260223239
 10
-11.77653192543941
 20
131.2810781777972
 30
0.0
 10
-11.73395886425794
 20
131.3026008335255
 30
0.0
 10
-11.66556219508147
 20
131.3371785059734
 30
0.0
 10
-11.53323819055131
 20
131.3675830564194
 30
0.0
 10
-11.40596266714985
 20
131.3631600006318
 30
0.0
 10
-11.27364403587535
 20
131.3062633560081
 30
0.0
 10
-11.17980442442616
 20
131.2239753749078
 30
0.0
 10
-11.13891935594769
 20
131.148306335094
 30
0.0
 10
-11.12095884690704
 20
131.1150654699204
 30
0.0
 11
-11.77653192543941
 21
131.2810781777972
 31
0.0
 11
-11.64639179620352
 21
131.3388946188449
 31
0.0
 11
-11.56223044209457
 21
131.3583411692114
 31
0.0
 11
-11.38569644003144
 21
131.3489771373725
 31
0.0
 11
-11.28750993698925
 21
131.3069832158149
 31
0.0
 11
-11.17974215765332
 21
131.2114026437688
 31
0.0
 11
-11.12095884690704
 21
131.1150654699204
 31
0.0
  0
SPLINE
  5
16D
330
1F
100
AcDbEntity
  8
0
  6
Continuous
 62
     7
100
AcDbSpline
210
0.0
220
0.0
230
1.0
 70
     8
 71
     3
 72
    15
 73
    11
 74
     9
 42
0.000000001
 43
0.0000000001
 44
0.00000001
 40
0.0
 40
0.0
 40
0.0
 40
0.0
 40
0.0943055959819071
 40
0.193640647507627
 40
0.3078154001895816
 40
0.4863486119121817
 40
0.6608016760010251
 40
0.7741818158715641
 40
0.8712278341680748
 40
0.9636765563448952
 40
0.9636765563448952
 40
0.9636765563448952
 40
0.9636765563448952
 10
-13.19074833583825
 20
131.9881824415705
 30
0.0
 10
-13.16288600519636
 20
132.0028394031749
 30
0.0
 10
-13.10567539875737
 20
132.0329349907587
 30
0.0
 10
-13.00704314348056
 20
132.0635203811036
 30
0.0
 10
-12.87618164428805
 20
132.0778472480007
 30
0.0
 10
-12.71903974754795
 20
132.0400963314121
 30
0.0
 10
-12.59693942778123
 20
131.9351991550407
 30
0.0
 10
-12.53215167441103
 20
131.82339956784
 30
0.0
 10
-12.49850349427023
 20
131.7275643909679
 30
0.0
 10
-12.4885145591212
 20
131.6651022170601
 30
0.0
 10
-12.48364126822033
 20
131.6346288203017
 30
0.0
 11
-13.19074833583825
 21
131.9881824415705
 31
0.0
 11
-13.1060140856535
 21
132.0295787320194
 31
0.0
 11
-13.01118041290225
 21
132.0591426849543
 31
0.0
 11
-12.89754907628369
 21
132.0702689536539
 31
0.0
 11
-12.72440031807169
 21
132.0267532533984
 31
0.0
 11
-12.59083377556529
 21
131.9145309240933
 31
0.0
 11
-12.53289872395948
 21
131.8170702331744
 31
0.0
 11
-12.50089436498783
 21
131.725453362457
 31
0.0
 11
-12.48364126822033
 21
131.6346288203017
 31
0.0
  0
SPLINE
  5
16E
330
1F
100
AcDbEntity
  8
0
  6
Continuous
 62
     7
100
AcDbSpline
210
0.0
220
0.0
230
1.0
 70
     8
 71
     3
 72
    15
 73
    11
 74
     9
 42
0.000000001
 43
0.0000000001
 44
0.00000001
 40
0.0
 40
0.0
 40
0.0
 40
0.0
 40
0.1038025381651417
 40
0.2142622411873584
 40
0.3243766493585869
 40
0.4975150404666855
 40
0.6800578203528767
 40
0.7982772151315222
 40
0.8825276076179577
 40
0.9636021742263153
 40
0.9636021742263153
 40
0.9636021742263153
 40
0.9636021742263153
 10
-12.48364126822033
 20
131.6346288203017
 30
0.0
 10
-12.4529077130713
 20
131.6506590077385
 30
0.0
 10
-12.38946956245804
 20
131.6837474331259
 30
0.0
 10
-12.28449958584545
 20
131.7133182974249
 30
0.0
 10
-12.15262260187682
 20
131.7223656607249
 30
0.0
 10
-11.99766315029797
 20
131.679132375567
 30
0.0
 10
-11.87760227176152
 20
131.567440906857
 30
0.0
 10
-11.81793764518997
 20
131.4527685175262
 30
0.0
 10
-11.78917705615956
 20
131.3623253173218
 30
0.0
 10
-11.78069263703031
 20
131.3078114956178
 30
0.0
 10
-11.77653192543941
 20
131.2810781777972
 30
0.0
 11
-12.48364126822033
 21
131.6346288203017
 31
0.0
 11
-12.3900562469451
 21
131.67953774319
 31
0.0
 11
-12.28375987581661
 21
131.7095781806223
 31
0.0
 11
-12.17383058667755
 21
131.7159605481357
 31
0.0
 11
-12.00747779057141
 21
131.6679641879263
 31
0.0
 11
-11.87220563711288
 21
131.5453945670053
 31
0.0
 11
-11.81636891457222
 21
131.4411924263668
 31
0.0
 11
-11.79100647744349
 21
131.3608501854457
 31
0.0
 11
-11.77653192543941
 21
131.2810781777972
 31
0.0
  0
SPLINE
  5
16F
330
1F
100
AcDbEntity
  8
0
  6
Continuous
 62
     7
100
AcDbSpline
210
0.0
220
0.0
230
1.0
 70
     8
 71
     3
 72
    15
 73
    11
 74
     9
 42
0.000000001
 43
0.0000000001
 44
0.00000001
 40
0.0
 40
0.0
 40
0.0
 40
0.0
 40
0.1227789164178923
 40
0.2158920816269351
 40
0.5046915883435723
 40
0.7918971315124945
 40
1.129612366541948
 40
1.317709792923297
 40
1.413534376973771
 40
1.542791585848493
 40
1.542791585848493
 40
1.542791585848493
 40
1.542791585848493
 10
-13.85414446346012
 20
130.6613926871495
 30
0.0
 10
-13.85343249181098
 20
130.7023368484328
 30
0.0
 10
-13.85218056130269
 20
130.774332272491
 30
0.0
 10
-13.83426838398869
 20
130.9417273572791
 30
0.0
 10
-13.78665773744733
 20
131.1607405283886
 30
0.0
 10
-13.67508980204593
 20
131.4452628133796
 30
0.0
 10
-13.53300644219758
 20
131.678717194214
 30
0.0
 10
-13.39403309993553
 20
131.8332375738681
 30
0.0
 10
-13.29061366494109
 20
131.9247170121031
 30
0.0
 10
-13.2271776156589
 20
131.9650312704269
 30
0.0
 10
-13.19074833583825
 20
131.9881824415705
 30
0.0
 11
-13.85414446346012
 21
130.6613926871495
 31
0.0
 11
-13.8499352674137
 21
130.7840994286701
 31
0.0
 11
-13.84040395240386
 21
130.8767234814594
 31
0.0
 11
-13.77916699512042
 21
131.1589559883657
 31
0.0
 11
-13.67430661792564
 21
131.4263346065064
 31
0.0
 11
-13.49627424284135
 21
131.713312050004
 31
0.0
 11
-13.37007221772974
 21
131.8527885472799
 31
0.0
 11
-13.29769546759639
 21
131.9155894835427
 31
0.0
 11
-13.19074833583825
 21
131.9881824415705
 31
0.0
  0
SPLINE
  5
170
330
1F
100
AcDbEntity
  8
0
  6
Continuous
 62
     7
100
AcDbSpline
210
0.0
220
0.0
230
1.0
 70
     8
 71
     3
 72
    13
 73
     9
 74
     7
 42
0.000000001
 43
0.0000000001
 44
0.00000001
 40
0.0
 40
0.0
 40
0.0
 40
0.0
 40
0.1261719573187756
 40
0.2168469571639863
 40
0.4735930077856095
 40
0.6435156103063597
 40
0.7376247935071091
 40
0.8339916107972245
 40
0.8339916107972245
 40
0.8339916107972245
 40
0.8339916107972245
 10
-12.99714185378353
 20
129.7237569234776
 30
0.0
 10
-13.03923824287463
 20
129.7214426639209
 30
0.0
 10
-13.11158771027755
 20
129.7174652469068
 30
0.0
 10
-13.26866956246194
 20
129.7367860528789
 30
0.0
 10
-13.43462091333186
 20
129.7981452749635
 30
0.0
 10
-13.57156318880188
 20
129.9073070360062
 30
0.0
 10
-13.65183584106977
 20
129.9971974574167
 30
0.0
 10
-13.68663796173009
 20
130.0503960432418
 30
0.0
 10
-13.70424526373891
 20
130.0773106108207
 30
0.0
 11
-12.99714185378353
 21
129.7237569234776
 31
0.0
 11
-13.12328699429766
 21
129.721155661642
 31
0.0
 11
-13.21332885425211
 21
129.7318523543299
 31
0.0
 11
-13.45353904039999
 21
129.8225033484339
 31
0.0
 11
-13.58710008448331
 21
129.9275516185152
 31
0.0
 11
-13.64947211709401
 21
129.9980233727885
 31
0.0
 11
-13.70424526373891
 21
130.0773106108207
 31
0.0
  0
SPLINE
  5
171
330
1F
100
AcDbEntity
  8
0
  6
Continuous
 62
     7
100
AcDbSpline
210
0.0
220
0.0
230
1.0
 70
     8
 71
     3
 72
    13
 73
     9
 74
     7
 42
0.000000001
 43
0.0000000001
 44
0.00000001
 40
0.0
 40
0.0
 40
0.0
 40
0.0
 40
0.1493711992958997
 40
0.2425979631894201
 40
0.3715614500339725
 40
0.5365028074639357
 40
0.5799603766576079
 40
0.6218253112709815
 40
0.6218253112709815
 40
0.6218253112709815
 40
0.6218253112709815
 10
-12.82116211418834
 20
130.075706281179
 30
0.0
 10
-12.80682954139052
 20
130.0278052304704
 30
0.0
 10
-12.7835515952418
 20
129.9500077919013
 30
0.0
 10
-12.72109528558726
 20
129.8422419501907
 30
0.0
 10
-12.63456326245237
 20
129.7444903859614
 30
0.0
 10
-12.53151042883715
 20
129.6907337109637
 30
0.0
 10
-12.45011410424843
 20
129.6719611856337
 30
0.0
 10
-12.42181288565542
 20
129.6688999739204
 30
0.0
 10
-12.40792641153274
 20
129.6673979452714
 30
0.0
 11
-12.82116211418834
 21
130.075706281179
 31
0.0
 11
-12.77152978874925
 21
129.9348219776352
 31
0.0
 11
-12.7249341451617
 21
129.854074992359
 31
0.0
 11
-12.63796793178057
 21
129.7588465348649
 31
0.0
 11
-12.49181958921353
 21
129.6823853371149
 31
0.0
 11
-12.44945324006435
 21
129.6727078918065
 31
0.0
 11
-12.40792641153274
 21
129.6673979452714
 31
0.0
  0
SPLINE
  5
172
330
1F
100
AcDbEntity
  8
0
  6
Continuous
 62
     7
100
AcDbSpline
210
0.0
220
0.0
230
1.0
 70
     8
 71
     3
 72
     9
 73
     5
 74
     3
 42
0.000000001
 43
0.0000000001
 44
0.00000001
 40
0.0
 40
0.0
 40
0.0
 40
0.0
 40
0.0269123643337667
 40
0.0533891956317372
 40
0.0533891956317372
 40
0.0533891956317372
 40
0.0533891956317372
 10
-12.11404974694879
 20
129.7221431715346
 30
0.0
 10
-12.1118320388383
 20
129.7134492370021
 30
0.0
 10
-12.10743249334103
 20
129.6962020704544
 30
0.0
 10
-12.10218456972012
 20
129.679193897719
 30
0.0
 10
-12.09958200388034
 20
129.6707591879047
 30
0.0
 11
-12.11404974694879
 21
129.7221431715346
 31
0.0
 11
-12.10718104374208
 21
129.6961220977832
 31
0.0
 11
-12.09958200388034
 21
129.6707591879047
 31
0.0
  0
SPLINE
  5
173
330
1F
100
AcDbEntity
  8
0
  6
Continuous
 62
     7
100
AcDbSpline
210
0.0
220
0.0
230
1.0
 70
     8
 71
     3
 72
    15
 73
    11
 74
     9
 42
0.000000001
 43
0.0000000001
 44
0.00000001
 40
0.0
 40
0.0
 40
0.0
 40
0.0
 40
0.1083328353334912
 40
0.2293110785775176
 40
0.5174852106090553
 40
0.8036505628775884
 40
1.14931360494486
 40
1.338092937990791
 40
1.425106363556059
 40
1.542756804248109
 40
1.542756804248109
 40
1.542756804248109
 40
1.542756804248109
 10
-13.14703620943276
 20
130.3078404054151
 30
0.0
 10
-13.14648168141548
 20
130.3439631290644
 30
0.0
 10
-13.14530788173382
 20
130.4204250867533
 30
0.0
 10
-13.12691359129552
 20
130.5921349199025
 30
0.0
 10
-13.0757659804785
 20
130.8193172944199
 30
0.0
 10
-12.96153606603853
 20
131.1050268693662
 30
0.0
 10
-12.81589142191046
 20
131.3394728579125
 30
0.0
 10
-12.67454190558145
 20
131.4918300166342
 30
0.0
 10
-12.57470439113298
 20
131.5773041806872
 30
0.0
 10
-12.51688092641193
 20
131.6137043137318
 30
0.0
 10
-12.48364126822033
 20
131.6346288203017
 30
0.0
 11
-13.14703620943276
 21
130.3078404054151
 31
0.0
 11
-13.14381539923672
 21
130.4161253493511
 31
0.0
 11
-13.1314968552163
 21
130.5364747905563
 31
0.0
 11
-13.06830154147799
 21
130.8176343202396
 31
0.0
 11
-12.9620125414243
 21
131.0833282371773
 31
0.0
 11
-12.77687660960232
 21
131.375231687804
 31
0.0
 11
-12.64799634749186
 21
131.5131719541461
 31
0.0
 11
-12.58141411655646
 21
131.5691910881316
 31
0.0
 11
-12.48364126822033
 21
131.6346288203017
 31
0.0
  0
SPLINE
  5
174
330
1F
100
AcDbEntity
  8
0
  6
Continuous
 62
     7
100
AcDbSpline
210
0.0
220
0.0
230
1.0
 70
     8
 71
     3
 72
    15
 73
    11
 74
     9
 42
0.000000001
 43
0.0000000001
 44
0.00000001
 40
0.0
 40
0.0
 40
0.0
 40
0.0
 40
0.0069985382382601
 40
0.0139970765452824
 40
0.1008041610871319
 40
0.2078420771447287
 40
0.3275912238417448
 40
0.4039278246605345
 40
0.5013950824922044
 40
0.6224001484498314
 40
0.6224001484498314
 40
0.6224001484498314
 40
0.6224001484498314
 10
-13.52826609177454
 20
130.4292613907846
 30
0.0
 10
-13.52769201163517
 20
130.4270002852552
 30
0.0
 10
-13.526543837453
 20
130.4224780776958
 30
0.0
 10
-13.51836838383995
 20
130.3898862430579
 30
0.0
 10
-13.4970936574818
 20
130.3262191525526
 30
0.0
 10
-13.45216409609127
 20
130.2314378356887
 30
0.0
 10
-13.39042935109881
 20
130.1499382277112
 30
0.0
 10
-13.31536879099493
 20
130.0866317339208
 30
0.0
 10
-13.2274887960183
 20
130.0392922600188
 30
0.0
 10
-13.15513105621701
 20
130.0274915077554
 30
0.0
 10
-13.11505433943383
 20
130.0209554431657
 30
0.0
 11
-13.52826609177454
 21
130.4292613907846
 31
0.0
 11
-13.52654709174476
 21
130.4224772491322
 31
0.0
 11
-13.52482809171498
 21
130.4156931074798
 31
0.0
 11
-13.49778487485716
 21
130.3332059291848
 31
0.0
 11
-13.45093447476582
 21
130.2369658345816
 31
0.0
 11
-13.37778253741611
 21
130.1421573292279
 31
0.0
 11
-13.31935043752988
 21
130.0930353733987
 31
0.0
 11
-13.23306560832837
 21
130.0477055264928
 31
0.0
 11
-13.11505433943383
 21
130.0209554431657
 31
0.0
  0
SPLINE
  5
175
330
1F
100
AcDbEntity
  8
0
  6
Continuous
 62
     7
100
AcDbSpline
210
0.0
220
0.0
230
1.0
 70
     8
 71
     3
 72
    11
 73
     7
 74
     5
 42
0.000000001
 43
0.0000000001
 44
0.00000001
 40
0.0
 40
0.0
 40
0.0
 40
0.0
 40
0.1292520173500067
 40
0.2853408098722816
 40
0.4127766501029766
 40
0.6098025346556658
 40
0.6098025346556658
 40
0.6098025346556658
 40
0.6098025346556658
 10
-12.99714185378353
 20
129.7237569234776
 30
0.0
 10
-13.01793576048816
 20
129.7615699090863
 30
0.0
 10
-13.06384102743985
 20
129.8450470499544
 30
0.0
 10
-13.10685305998556
 20
129.9765846763267
 30
0.0
 10
-13.1387031618977
 20
130.1338910811215
 30
0.0
 10
-13.143887863416
 20
130.242119726496
 30
0.0
 10
-13.14703620943276
 20
130.3078404054151
 30
0.0
 11
-12.99714185378353
 21
129.7237569234776
 31
0.0
 11
-13.05620525424713
 21
129.8387247408488
 31
0.0
 11
-13.10657994455478
 21
129.9864613384735
 31
0.0
 11
-13.13157330360464
 21
130.1114222348689
 31
0.0
 11
-13.14703620943276
 21
130.3078404054151
 31
0.0
  0
SPLINE
  5
176
330
1F
100
AcDbEntity
  8
0
  6
Continuous
 62
     7
100
AcDbSpline
210
0.0
220
0.0
230
1.0
 70
     8
 71
     3
 72
    13
 73
     9
 74
     7
 42
0.000000001
 43
0.0000000001
 44
0.00000001
 40
0.0
 40
0.0
 40
0.0
 40
0.0
 40
0.1215034621783412
 40
0.2394900160663483
 40
0.4864755822357486
 40
0.6526908452518912
 40
0.7297532098956245
 40
0.8341288735620644
 40
0.8341288735620644
 40
0.8341288735620644
 40
0.8341288735620644
 10
-12.29003829396446
 20
129.3702033359199
 30
0.0
 10
-12.33056245199531
 20
129.3679534019263
 30
0.0
 10
-12.41043779975709
 20
129.3635186724301
 30
0.0
 10
-12.57188166831068
 20
129.3853580533427
 30
0.0
 10
-12.74014767673528
 20
129.4526299112378
 30
0.0
 10
-12.86744522794998
 20
129.5573357727426
 30
0.0
 10
-12.94476298210411
 20
129.6439982177829
 30
0.0
 10
-12.97801373459948
 20
129.6946300171621
 30
0.0
 10
-12.99714185378353
 20
129.7237569234776
 30
0.0
 11
-12.29003829396446
 21
129.3702033359199
 31
0.0
 11
-12.41150853996526
 21
129.3673624043087
 31
0.0
 11
-12.5284959055402
 21
129.3826850515542
 31
0.0
 11
-12.75730051307587
 21
129.4756921645323
 31
0.0
 11
-12.88636339014026
 21
129.5804313076557
 31
0.0
 11
-12.93740756317604
 21
129.6381643190079
 31
0.0
 11
-12.99714185378353
 21
129.7237569234776
 31
0.0
  0
SPLINE
  5
177
330
1F
100
AcDbEntity
  8
0
  6
Continuous
 62
     7
100
AcDbSpline
210
0.0
220
0.0
230
1.0
 70
     8
 71
     3
 72
    15
 73
    11
 74
     9
 42
0.000000001
 43
0.0000000001
 44
0.00000001
 40
0.0
 40
0.0
 40
0.0
 40
0.0
 40
0.1244196248281552
 40
0.2514742599490872
 40
0.6044592373271831
 40
0.8255013109004384
 40
1.169696037469533
 40
1.35676338606808
 40
1.453513587241795
 40
1.542575262452601
 40
1.542575262452601
 40
1.542575262452601
 40
1.542575262452601
 10
-12.43992773635974
 20
129.9542875794121
 30
0.0
 10
-12.4391629982408
 20
129.9957785836056
 30
0.0
 10
-12.43761731151994
 20
130.0796393051257
 30
0.0
 10
-12.41375219013197
 20
130.2799423003821
 30
0.0
 10
-12.3550591907196
 20
130.5079501183375
 30
0.0
 10
-12.23284852489034
 20
130.7891263165463
 30
0.0
 10
-12.09603260181908
 20
131.0018532954563
 30
0.0
 10
-11.95176222946125
 20
131.1548287311102
 30
0.0
 10
-11.85368046848763
 20
131.2315979486073
 30
0.0
 10
-11.80152879824443
 20
131.2650461114745
 30
0.0
 10
-11.77653192543941
 20
131.2810781777972
 30
0.0
 11
-12.43992773635974
 21
129.9542875794121
 31
0.0
 11
-12.43558146611413
 21
130.0786312662011
 31
0.0
 11
-12.42118475080441
 21
130.2048676089113
 31
0.0
 11
-12.33329541516137
 21
130.5467357949452
 31
0.0
 11
-12.24502400712073
 21
130.7493876067246
 31
0.0
 11
-12.05678373653901
 21
131.037546611059
 31
0.0
 11
-11.92690659382966
 21
131.1721799031792
 31
0.0
 11
-11.85076993892178
 21
131.2318775713863
 31
0.0
 11
-11.77653192543941
 21
131.2810781777972
 31
0.0
  0
SPLINE
  5
178
330
1F
100
AcDbEntity
  8
0
  6
Continuous
 62
     7
100
AcDbSpline
210
0.0
220
0.0
230
1.0
 70
     8
 71
     3
 72
    11
 73
     7
 74
     5
 42
0.000000001
 43
0.0000000001
 44
0.00000001
 40
0.0
 40
0.0
 40
0.0
 40
0.0
 40
0.1371112628604198
 40
0.3056621033824024
 40
0.4553454745521346
 40
0.6098731451646983
 40
0.6098731451646983
 40
0.6098731451646983
 40
0.6098731451646983
 10
-12.29003829396446
 20
129.3702033359199
 30
0.0
 10
-12.31200573168495
 20
129.4103812979329
 30
0.0
 10
-12.36097772067176
 20
129.4999500255549
 30
0.0
 10
-12.40605121987884
 20
129.6458888815319
 30
0.0
 10
-12.43449728975139
 20
129.8012708449665
 30
0.0
 10
-12.43809847722534
 20
129.9027433799309
 30
0.0
 10
-12.43992773635974
 20
129.9542875794121
 30
0.0
 11
-12.29003829396446
 21
129.3702033359199
 31
0.0
 11
-12.35217478722243
 21
129.492426716979
 31
0.0
 11
-12.4044535590665
 21
129.6526650284999
 31
0.0
 11
-12.4306461583307
 21
129.8000389057681
 31
0.0
 11
-12.43992773635974
 21
129.9542875794121
 31
0.0
  0
SPLINE
  5
179
330
1F
100
AcDbEntity
  8
0
  6
Continuous
 62
     7
100
AcDbSpline
210
0.0
220
0.0
230
1.0
 70
     8
 71
     3
 72
    13
 73
     9
 74
     7
 42
0.000000001
 43
0.0000000001
 44
0.00000001
 40
0.0
 40
0.0
 40
0.0
 40
0.0
 40
0.1339197557681376
 40
0.2277172875581063
 40
0.4407100183665236
 40
0.6550768419785118
 40
0.7314287743683752
 40
0.8341967821962375
 40
0.8341967821962375
 40
0.8341967821962375
 40
0.8341967821962375
 10
-13.70424526373891
 20
130.0773106108207
 30
0.0
 10
-13.74894272707083
 20
130.0749548973834
 30
0.0
 10
-13.82494633891269
 20
130.0709492529176
 30
0.0
 10
-13.97097937439449
 20
130.0908957714762
 30
0.0
 10
-14.13752499563458
 20
130.1494406394759
 30
0.0
 10
-14.27255794267066
 20
130.2538617737165
 30
0.0
 10
-14.35972286792943
 20
130.3521786105698
 30
0.0
 10
-14.39253115540324
 20
130.4021768646402
 30
0.0
 10
-14.4113545272095
 20
130.430862792823
 30
0.0
 11
-13.70424526373891
 21
130.0773106108207
 31
0.0
 11
-13.83814828381977
 21
130.0751934310618
 31
0.0
 11
-13.93114493063546
 21
130.0874245735244
 31
0.0
 11
-14.13161970015412
 21
130.1593674069295
 31
0.0
 11
-14.30219734214033
 21
130.2891996230619
 31
0.0
 11
-14.352622888821
 21
130.3465309581342
 31
0.0
 11
-14.4113545272095
 21
130.430862792823
 31
0.0
  0
SPLINE
  5
17A
330
1F
100
AcDbEntity
  8
0
  6
Continuous
 62
     7
100
AcDbSpline
210
0.0
220
0.0
230
1.0
 70
     8
 71
     3
 72
    13
 73
     9
 74
     7
 42
0.000000001
 43
0.0000000001
 44
0.00000001
 40
0.0
 40
0.0
 40
0.0
 40
0.0
 40
0.060846402493871
 40
0.1195895598025842
 40
0.2508062814088623
 40
0.4203217161175007
 40
0.503548077768545
 40
0.6219360373323454
 40
0.6219360373323454
 40
0.6219360373323454
 40
0.6219360373323454
 10
-14.23537300632124
 20
130.7828139713948
 30
0.0
 10
-14.23010485595523
 20
130.7632157503818
 30
0.0
 10
-14.21975064280209
 20
130.7246967535756
 30
0.0
 10
-14.19024668124277
 20
130.6463742958055
 30
0.0
 10
-14.13324166244923
 20
130.5399697840791
 30
0.0
 10
-14.03971647320345
 20
130.447859253675
 30
0.0
 10
-13.92830529669033
 20
130.3910157937167
 30
0.0
 10
-13.8614182713718
 20
130.3806127789323
 30
0.0
 10
-13.82214219845416
 20
130.3745041344332
 30
0.0
 11
-14.23537300632124
 21
130.7828139713948
 31
0.0
 11
-14.21860713566292
 21
130.7243230296536
 31
0.0
 11
-14.19802848381859
 21
130.6693023272636
 31
0.0
 11
-14.13444833445283
 21
130.5545182117807
 31
0.0
 11
-14.01226142149214
 21
130.4370199473253
 31
0.0
 11
-13.93777626507822
 21
130.3998905913603
 31
0.0
 11
-13.82214219845416
 21
130.3745041344332
 31
0.0
  0
SPLINE
  5
17B
330
1F
100
AcDbEntity
  8
0
  6
Continuous
 62
     7
100
AcDbSpline
210
0.0
220
0.0
230
1.0
 70
     8
 71
     3
 72
    11
 73
     7
 74
     5
 42
0.000000001
 43
0.0000000001
 44
0.00000001
 40
0.0
 40
0.0
 40
0.0
 40
0.0
 40
0.133612227742288
 40
0.2740136817222231
 40
0.4512405011994508
 40
0.6098823473431515
 40
0.6098823473431515
 40
0.6098823473431515
 40
0.6098823473431515
 10
-13.70424526373891
 20
130.0773106108207
 30
0.0
 10
-13.72571592742289
 20
130.1164270600435
 30
0.0
 10
-13.76974822827207
 20
130.1966475858816
 30
0.0
 10
-13.81708684664896
 20
130.3401079366652
 30
0.0
 10
-13.84812265211554
 20
130.4964604244602
 30
0.0
 10
-13.85221263639359
 20
130.6084814583642
 30
0.0
 10
-13.85414446346012
 20
130.6613926871495
 30
0.0
 11
-13.70424526373891
 21
130.0773106108207
 31
0.0
 11
-13.7650227404744
 21
130.1962993749639
 31
0.0
 11
-13.81075704304256
 21
130.329043272297
 31
0.0
 11
-13.84437857046508
 21
130.5030517173967
 31
0.0
 11
-13.85414446346012
 21
130.6613926871495
 31
0.0
  0
SPLINE
  5
17C
330
1F
100
AcDbEntity
  8
0
  6
Continuous
 62
     7
100
AcDbSpline
210
0.0
220
0.0
230
1.0
 70
     8
 71
     3
 72
     9
 73
     5
 74
     3
 42
0.000000001
 43
0.0000000001
 44
0.00000001
 40
0.0
 40
0.0
 40
0.0
 40
0.0
 40
0.3556518725044202
 40
0.6569803291224245
 40
0.6569803291224245
 40
0.6569803291224245
 40
0.6569803291224245
 10
-10.09606242748279
 20
130.4331062661042
 30
0.0
 10
-10.11651444932656
 20
130.5549692733019
 30
0.0
 10
-10.15429460228736
 20
130.7800815302601
 30
0.0
 10
-10.33280130397496
 20
130.9196912989124
 30
0.0
 10
-10.41467461274097
 20
130.9837242547957
 30
0.0
 11
-10.09606242748279
 21
130.4331062661042
 31
0.0
 11
-10.1986587733596
 21
130.7736385641487
 31
0.0
 11
-10.41467461274097
 21
130.9837242547957
 31
0.0
  0
SPLINE
  5
17D
330
1F
100
AcDbEntity
  8
0
  6
Continuous
 62
     7
100
AcDbSpline
210
0.0
220
0.0
230
1.0
 70
     8
 71
     3
 72
    11
 73
     7
 74
     5
 42
0.000000001
 43
0.0000000001
 44
0.00000001
 40
0.0
 40
0.0
 40
0.0
 40
0.0
 40
0.1374455805344739
 40
0.2369856399152545
 40
0.3073014111781196
 40
0.4012368103228017
 40
0.4012368103228017
 40
0.4012368103228017
 40
0.4012368103228017
 10
-12.00395612178365
 20
129.0953013255675
 30
0.0
 10
-12.0433139800504
 20
129.1190661383298
 30
0.0
 10
-12.11117535558242
 20
129.1600417804948
 30
0.0
 10
-12.18546494554818
 20
129.2313386037856
 30
0.0
 10
-12.24301201999707
 20
129.2979790688083
 30
0.0
 10
-12.27292884174714
 20
129.3439261515778
 30
0.0
 10
-12.29003829396446
 20
129.3702033359199
 30
0.0
 11
-12.00395612178365
 21
129.0953013255675
 31
0.0
 11
-12.11847409158491
 21
129.1713073936606
 31
0.0
 11
-12.19115353709002
 21
129.239321523625
 31
0.0
 11
-12.2367752422526
 21
129.292828232013
 31
0.0
 11
-12.29003829396446
 21
129.3702033359199
 31
0.0
  0
SPLINE
  5
17E
330
1F
100
AcDbEntity
  8
0
  6
Continuous
 62
     7
100
AcDbSpline
210
0.0
220
0.0
230
1.0
 70
     8
 71
     3
 72
     9
 73
     5
 74
     3
 42
0.000000001
 43
0.0000000001
 44
0.00000001
 40
0.0
 40
0.0
 40
0.0
 40
0.0
 40
0.3095627684394869
 40
0.5612992065715618
 40
0.5612992065715618
 40
0.5612992065715618
 40
0.5612992065715618
 10
-11.36260033676852
 20
129.4237485278042
 30
0.0
 10
-11.35596398353647
 20
129.3154540881131
 30
0.0
 10
-11.34393093043445
 20
129.11909461859
 30
0.0
 10
-11.19533851750615
 20
128.9933549446351
 30
0.0
 10
-11.12869646965061
 20
128.9369621074382
 30
0.0
 11
-11.36260033676852
 21
129.4237485278042
 31
0.0
 11
-11.30115475124427
 21
129.1203452494447
 31
0.0
 11
-11.12869646965061
 21
128.9369621074382
 31
0.0
  0
SPLINE
  5
17F
330
1F
100
AcDbEntity
  8
0
  6
Continuous
 62
     7
100
AcDbSpline
210
0.0
220
0.0
230
1.0
 70
     8
 71
     3
 72
     9
 73
     5
 74
     3
 42
0.000000001
 43
0.0000000001
 44
0.00000001
 40
0.0
 40
0.0
 40
0.0
 40
0.0
 40
0.429948290564454
 40
0.7795822334797151
 40
0.7795822334797151
 40
0.7795822334797151
 40
0.7795822334797151
 10
-12.10506245701441
 20
129.5474922145119
 30
0.0
 10
-12.09584529972485
 20
129.3970832701239
 30
0.0
 10
-12.07913273274452
 20
129.124361781317
 30
0.0
 10
-11.87275437498752
 20
128.949723349238
 30
0.0
 10
-11.78019597490616
 20
128.8713999640036
 30
0.0
 11
-12.10506245701441
 21
129.5474922145119
 31
0.0
 11
-12.01972136600851
 21
129.126098772346
 31
0.0
 11
-11.78019597490616
 21
128.8713999640036
 31
0.0
  0
SPLINE
  5
180
330
1F
100
AcDbEntity
  8
0
  6
Continuous
 62
     7
100
AcDbSpline
210
0.0
220
0.0
230
1.0
 70
     8
 71
     3
 72
     9
 73
     5
 74
     3
 42
0.000000001
 43
0.0000000001
 44
0.00000001
 40
0.0
 40
0.0
 40
0.0
 40
0.0
 40
0.4299482905644822
 40
0.7795822334797202
 40
0.7795822334797202
 40
0.7795822334797202
 40
0.7795822334797202
 10
-11.85757508359912
 20
129.4237485278042
 30
0.0
 10
-11.84835792630957
 20
129.2733395834161
 30
0.0
 10
-11.83164535932924
 20
129.0006180946093
 30
0.0
 10
-11.62526700157222
 20
128.8259796625302
 30
0.0
 10
-11.53270860149087
 20
128.7476562772959
 30
0.0
 11
-11.85757508359912
 21
129.4237485278042
 31
0.0
 11
-11.77223399259322
 21
129.0023550856382
 31
0.0
 11
-11.53270860149087
 21
128.7476562772959
 31
0.0
  0
SPLINE
  5
181
330
1F
100
AcDbEntity
  8
0
  6
Continuous
 62
     7
100
AcDbSpline
210
0.0
220
0.0
230
1.0
 70
     8
 71
     3
 72
     9
 73
     5
 74
     3
 42
0.000000001
 43
0.0000000001
 44
0.00000001
 40
0.0
 40
0.0
 40
0.0
 40
0.0
 40
0.301328456618022
 40
0.656980329122464
 40
0.656980329122464
 40
0.656980329122464
 40
0.656980329122464
 10
-11.53270860149087
 20
128.7476562772959
 30
0.0
 10
-11.43235825152458
 20
128.7205774038131
 30
0.0
 10
-11.21356641559021
 20
128.6615379036544
 30
0.0
 10
-11.01080851824717
 20
128.7663811354606
 30
0.0
 10
-10.90104689938271
 20
128.8231373223043
 30
0.0
 11
-11.53270860149087
 21
128.7476562772959
 31
0.0
 11
-11.23503054534438
 21
128.7008950201791
 31
0.0
 11
-10.90104689938271
 21
128.8231373223043
 31
0.0
  0
SPLINE
  5
182
330
1F
100
AcDbEntity
  8
0
  6
Continuous
 62
     7
100
AcDbSpline
210
0.0
220
0.0
230
1.0
 70
     8
 71
     3
 72
    11
 73
     7
 74
     5
 42
0.000000001
 43
0.0000000001
 44
0.00000001
 40
0.0
 40
0.0
 40
0.0
 40
0.0
 40
0.280598349154917
 40
0.6478166394718561
 40
1.075571039844329
 40
1.485581592744145
 40
1.485581592744145
 40
1.485581592744145
 40
1.485581592744145
 10
-8.541136066103164
 20
129.5158888368206
 30
0.0
 10
-8.637476353374783
 20
129.5295890301849
 30
0.0
 10
-8.859896909924997
 20
129.5612186137778
 30
0.0
 10
-9.154058781626883
 20
129.3040449177336
 30
0.0
 10
-9.378107480305955
 20
128.9668915913903
 30
0.0
 10
-9.416798561813174
 20
128.6861175257237
 30
0.0
 10
-9.435734358035191
 20
128.5487038860859
 30
0.0
 11
-8.541136066103164
 21
129.5158888368206
 31
0.0
 11
-8.821667982209423
 21
129.5219945827986
 31
0.0
 11
-9.122650205129432
 21
129.3116163950905
 31
0.0
 11
-9.350883989729436
 21
128.9498386075666
 31
0.0
 11
-9.435734358035191
 21
128.5487038860859
 31
0.0
  0
SPLINE
  5
183
330
1F
100
AcDbEntity
  8
0
  6
Continuous
 62
     7
100
AcDbSpline
210
0.0
220
0.0
230
1.0
 70
     8
 71
     3
 72
     9
 73
     5
 74
     3
 42
0.000000001
 43
0.0000000001
 44
0.00000001
 40
0.0
 40
0.0
 40
0.0
 40
0.0
 40
0.2665679391091447
 40
0.48334098267584
 40
0.48334098267584
 40
0.48334098267584
 40
0.48334098267584
 10
-9.435734358035191
 20
128.5487038860859
 30
0.0
 10
-9.430019720537972
 20
128.4554503409294
 30
0.0
 10
-9.419657922392487
 20
128.2863630211505
 30
0.0
 10
-9.291703346902972
 20
128.1780871893828
 30
0.0
 10
-9.234317139128066
 20
128.1295266907707
 30
0.0
 11
-9.435734358035191
 21
128.5487038860859
 31
0.0
 11
-9.382822881611531
 21
128.287439951943
 31
0.0
 11
-9.234317139128066
 21
128.1295266907707
 31
0.0
  0
SPLINE
  5
184
330
1F
100
AcDbEntity
  8
0
  6
Continuous
 62
     7
100
AcDbSpline
210
0.0
220
0.0
230
1.0
 70
     8
 71
     3
 72
     9
 73
     5
 74
     3
 42
0.000000001
 43
0.0000000001
 44
0.00000001
 40
0.0
 40
0.0
 40
0.0
 40
0.0
 40
0.3095627684394838
 40
0.5612992065715842
 40
0.5612992065715842
 40
0.5612992065715842
 40
0.5612992065715842
 10
-9.524122705683496
 20
128.5045097122617
 30
0.0
 10
-9.51748635245146
 20
128.3962152725706
 30
0.0
 10
-9.505453299349448
 20
128.1998558030474
 30
0.0
 10
-9.35686088642112
 20
128.0741161290927
 30
0.0
 10
-9.290218838565565
 20
128.0177232918957
 30
0.0
 11
-9.524122705683496
 21
128.5045097122617
 31
0.0
 11
-9.462677120159267
 21
128.2011064339022
 31
0.0
 11
-9.290218838565565
 21
128.0177232918957
 31
0.0
  0
SPLINE
  5
185
330
1F
100
AcDbEntity
  8
0
  6
Continuous
 62
     7
100
AcDbSpline
210
0.0
220
0.0
230
1.0
 70
     8
 71
     3
 72
     9
 73
     5
 74
     3
 42
0.000000001
 43
0.0000000001
 44
0.00000001
 40
0.0
 40
0.0
 40
0.0
 40
0.0
 40
0.151243283912357
 40
0.3127488322500777
 40
0.3127488322500777
 40
0.3127488322500777
 40
0.3127488322500777
 10
-9.290218838565565
 20
128.0177232918957
 30
0.0
 10
-9.241555518352419
 20
128.0007481560554
 30
0.0
 10
-9.140926937501224
 20
127.9656460948077
 30
0.0
 10
-9.037237070038305
 20
127.9910795694745
 30
0.0
 10
-8.983690942777727
 20
128.0042135925955
 30
0.0
 11
-9.290218838565565
 21
128.0177232918957
 31
0.0
 11
-9.143512955036888
 21
127.9809548917006
 31
0.0
 11
-8.983690942777727
 21
128.0042135925955
 31
0.0
  0
SPLINE
  5
186
330
1F
100
AcDbEntity
  8
0
  6
Continuous
 62
     7
100
AcDbSpline
210
0.0
220
0.0
230
1.0
 70
     8
 71
     3
 72
     9
 73
     5
 74
     3
 42
0.000000001
 43
0.0000000001
 44
0.00000001
 40
0.0
 40
0.0
 40
0.0
 40
0.0
 40
0.1615055483377391
 40
0.3127488322501319
 40
0.3127488322501319
 40
0.3127488322501319
 40
0.3127488322501319
 10
-8.290509869752768
 20
129.3905757386454
 30
0.0
 10
-8.312130327612293
 20
129.4412930543265
 30
0.0
 10
-8.353997468356642
 20
129.5395050330969
 30
0.0
 10
-8.442456265865557
 20
129.5989466610292
 30
0.0
 10
-8.485234366665637
 20
129.6276922356956
 30
0.0
 11
-8.290509869752768
 21
129.3905757386454
 31
0.0
 11
-8.367796116392348
 21
129.5323885689897
 31
0.0
 11
-8.485234366665637
 21
129.6276922356956
 31
0.0
  0
SPLINE
  5
187
330
1F
100
AcDbEntity
  8
0
  6
Continuous
 62
     7
100
AcDbSpline
210
0.0
220
0.0
230
1.0
 70
     8
 71
     3
 72
    11
 73
     7
 74
     5
 42
0.000000001
 43
0.0000000001
 44
0.00000001
 40
0.0
 40
0.0
 40
0.0
 40
0.0
 40
0.1900827503119846
 40
0.4388435231168476
 40
0.7286126313481396
 40
1.006361715742081
 40
1.006361715742081
 40
1.006361715742081
 40
1.006361715742081
 10
-7.097304547456318
 20
128.5144645775879
 30
0.0
 10
-7.16256732190096
 20
128.5237453536236
 30
0.0
 10
-7.313239309287026
 20
128.5451718404749
 30
0.0
 10
-7.512510254121628
 20
128.3709574080857
 30
0.0
 10
-7.664285175979011
 20
128.1425632191951
 30
0.0
 10
-7.690495267538322
 20
127.9523614344568
 30
0.0
 10
-7.703322742406314
 20
127.8592747752899
 30
0.0
 11
-7.097304547456318
 21
128.5144645775879
 31
0.0
 11
-7.287342296195408
 21
128.5186007280699
 31
0.0
 11
-7.491233478518254
 21
128.3760864725415
 31
0.0
 11
-7.645843460917369
 21
128.1310111982586
 31
0.0
 11
-7.703322742406314
 21
127.8592747752899
 31
0.0
  0
SPLINE
  5
188
330
1F
100
AcDbEntity
  8
0
  6
Continuous
 62
     7
100
AcDbSpline
210
0.0
220
0.0
230
1.0
 70
     8
 71
     3
 72
    11
 73
     7
 74
     5
 42
0.000000001
 43
0.0000000001
 44
0.00000001
 40
0.0
 40
0.0
 40
0.0
 40
0.0
 40
0.2744570997878538
 40
0.6573848695907456
 40
1.040312639393612
 40
1.314769739181457
 40
1.314769739181457
 40
1.314769739181457
 40
1.314769739181457
 10
-7.56687882055364
 20
127.5753160313933
 30
0.0
 10
-7.470493655501804
 20
127.5757297184233
 30
0.0
 10
-7.239630075488487
 20
127.5767206048616
 30
0.0
 10
-7.029207559178063
 20
127.8934482420771
 30
0.0
 10
-6.902078959191882
 20
128.2518228374548
 30
0.0
 10
-7.039804398049228
 20
128.4371082333284
 30
0.0
 10
-7.097304547456318
 20
128.5144645775879
 30
0.0
 11
-7.56687882055364
 21
127.5753160313933
 31
0.0
 11
-7.294786952741209
 21
127.6112703910699
 31
0.0
 11
-7.044537342648297
 21
127.9011131338123
 31
0.0
 11
-6.962812914510182
 21
128.275218467532
 31
0.0
 11
-7.097304547456318
 21
128.5144645775879
 31
0.0
  0
SPLINE
  5
189
330
1F
100
AcDbEntity
  8
0
  6
Continuous
 62
     7
100
AcDbSpline
210
0.0
220
0.0
230
1.0
 70
     8
 71
     3
 72
    11
 73
     7
 74
     5
 42
0.000000001
 43
0.0000000001
 44
0.00000001
 40
0.0
 40
0.0
 40
0.0
 40
0.0
 40
0.2805983491549164
 40
0.6478166394718724
 40
1.075571039844376
 40
1.485581592744098
 40
1.485581592744098
 40
1.485581592744098
 40
1.485581592744098
 10
-6.985501147492741
 20
128.7380713775154
 30
0.0
 10
-7.081841434764363
 20
128.7517715708796
 30
0.0
 10
-7.304261991314583
 20
128.7834011544726
 30
0.0
 10
-7.59842386301646
 20
128.5262274584284
 30
0.0
 10
-7.822472561695523
 20
128.189074132085
 30
0.0
 10
-7.861163643202769
 20
127.9083000664184
 30
0.0
 10
-7.880099439424797
 20
127.7708864267807
 30
0.0
 11
-6.985501147492741
 21
128.7380713775154
 31
0.0
 11
-7.266033063599
 21
128.7441771234934
 31
0.0
 11
-7.567015286519009
 21
128.5337989357852
 31
0.0
 11
-7.795249071119027
 21
128.1720211482613
 31
0.0
 11
-7.880099439424797
 21
127.7708864267807
 31
0.0
  0
SPLINE
  5
18A
330
1F
100
AcDbEntity
  8
0
  6
Continuous
 62
     7
100
AcDbSpline
210
0.0
220
0.0
230
1.0
 70
     8
 71
     3
 72
     9
 73
     5
 74
     3
 42
0.000000001
 43
0.0000000001
 44
0.00000001
 40
0.0
 40
0.0
 40
0.0
 40
0.0
 40
0.1805782796110332
 40
0.3274245333657925
 40
0.3274245333657925
 40
0.3274245333657925
 40
0.3274245333657925
 10
-7.703322742406314
 20
127.8592747752899
 30
0.0
 10
-7.699451536396706
 20
127.7961030194955
 30
0.0
 10
-7.692432248196871
 20
127.6815599997363
 30
0.0
 10
-7.605753347986962
 20
127.6082118526833
 30
0.0
 10
-7.56687882055364
 20
127.5753160313933
 30
0.0
 11
-7.703322742406314
 21
127.8592747752899
 31
0.0
 11
-7.667479484350061
 21
127.682289530401
 31
0.0
 11
-7.56687882055364
 21
127.5753160313933
 31
0.0
  0
SPLINE
  5
18B
330
1F
100
AcDbEntity
  8
0
  6
Continuous
 62
     7
100
AcDbSpline
210
0.0
220
0.0
230
1.0
 70
     8
 71
     3
 72
     9
 73
     5
 74
     3
 42
0.000000001
 43
0.0000000001
 44
0.00000001
 40
0.0
 40
0.0
 40
0.0
 40
0.0
 40
0.2665679391092027
 40
0.4833409826758492
 40
0.4833409826758492
 40
0.4833409826758492
 40
0.4833409826758492
 10
-7.880099439424797
 20
127.7708864267807
 30
0.0
 10
-7.874384801927582
 20
127.6776328816242
 30
0.0
 10
-7.864023003782104
 20
127.5085455618452
 30
0.0
 10
-7.736068428292575
 20
127.4002697300776
 30
0.0
 10
-7.678682220517672
 20
127.3517092314655
 30
0.0
 11
-7.880099439424797
 21
127.7708864267807
 31
0.0
 11
-7.827187963001127
 21
127.5096224926378
 31
0.0
 11
-7.678682220517672
 21
127.3517092314655
 31
0.0
  0
SPLINE
  5
18C
330
1F
100
AcDbEntity
  8
0
  6
Continuous
 62
     7
100
AcDbSpline
210
0.0
220
0.0
230
1.0
 70
     8
 71
     3
 72
    11
 73
     7
 74
     5
 42
0.000000001
 43
0.0000000001
 44
0.00000001
 40
0.0
 40
0.0
 40
0.0
 40
0.0
 40
0.4051509594767325
 40
0.970425292671893
 40
1.535699625867059
 40
1.940850585343806
 40
1.940850585343806
 40
1.940850585343806
 40
1.940850585343806
 10
-7.678682220517672
 20
127.3517092314655
 30
0.0
 10
-7.536399356892503
 20
127.3523199123233
 30
0.0
 10
-7.19560073468172
 20
127.3537826421317
 30
0.0
 10
-6.884977017692067
 20
127.8213329713338
 30
0.0
 10
-6.697310984524101
 20
128.3503621424469
 30
0.0
 10
-6.900619974003894
 20
128.6238786781007
 30
0.0
 10
-6.985501147492741
 20
128.7380713775154
 30
0.0
 11
-7.678682220517672
 21
127.3517092314655
 31
0.0
 11
-7.27702279474138
 21
127.4047847150439
 31
0.0
 11
-6.907606701938704
 21
127.8326478134572
 31
0.0
 11
-6.786965878889633
 21
128.3848985467474
 31
0.0
 11
-6.985501147492741
 21
128.7380713775154
 31
0.0
  0
SPLINE
  5
18D
330
1F
100
AcDbEntity
  8
0
  6
Continuous
 62
     7
100
AcDbSpline
210
0.0
220
0.0
230
1.0
 70
     8
 71
     3
 72
    11
 73
     7
 74
     5
 42
0.000000001
 43
0.0000000001
 44
0.00000001
 40
0.0
 40
0.0
 40
0.0
 40
0.0
 40
0.4525779852817011
 40
1.044865556679699
 40
1.734792009567157
 40
2.396099350180846
 40
2.396099350180846
 40
2.396099350180846
 40
2.396099350180846
 10
-14.69267063891887
 20
133.1227222678847
 30
0.0
 10
-14.84805819998673
 20
133.1448193540915
 30
0.0
 10
-15.20680103662125
 20
133.1958348213049
 30
0.0
 10
-15.68125566761513
 20
132.781038525851
 30
0.0
 10
-16.04262454091811
 20
132.2372428403599
 30
0.0
 10
-16.10502950309538
 20
131.7843814426054
 30
0.0
 10
-16.13557110977702
 20
131.5627465408932
 30
0.0
 11
-14.69267063891887
 21
133.1227222678847
 31
0.0
 11
-15.14514147134836
 21
133.1325702452685
 31
0.0
 11
-15.63059666960643
 21
132.7932505876747
 31
0.0
 11
-15.9987156770258
 21
132.2097380271523
 31
0.0
 11
-16.13557110977702
 21
131.5627465408932
 31
0.0
  0
SPLINE
  5
18E
330
1F
100
AcDbEntity
  8
0
  6
Continuous
 62
     7
100
AcDbSpline
210
0.0
220
0.0
230
1.0
 70
     8
 71
     3
 72
     9
 73
     5
 74
     3
 42
0.000000001
 43
0.0000000001
 44
0.00000001
 40
0.0
 40
0.0
 40
0.0
 40
0.0
 40
0.4076564594037407
 40
0.9726295611243689
 40
0.9726295611243689
 40
0.9726295611243689
 40
0.9726295611243689
 10
-17.6558506893288
 20
134.9122416637522
 30
0.0
 10
-17.79426109563721
 20
134.8966720725725
 30
0.0
 10
-18.12449516262279
 20
134.8595244890314
 30
0.0
 10
-18.36479527119393
 20
134.6244979171496
 30
0.0
 10
-18.50437882675278
 20
134.4879775950404
 30
0.0
 11
-17.6558506893288
 21
134.9122416637522
 31
0.0
 11
-18.05528335030538
 21
134.8307717916474
 31
0.0
 11
-18.50437882675278
 21
134.4879775950404
 31
0.0
  0
SPLINE
  5
18F
330
1F
100
AcDbEntity
  8
0
  6
Continuous
 62
     7
100
AcDbSpline
210
0.0
220
0.0
230
1.0
 70
     8
 71
     3
 72
     9
 73
     5
 74
     3
 42
0.000000001
 43
0.0000000001
 44
0.00000001
 40
0.0
 40
0.0
 40
0.0
 40
0.0
 40
0.0288287246869657
 40
0.0578023702466461
 40
0.0578023702466461
 40
0.0578023702466461
 40
0.0578023702466461
 10
-16.99746100961683
 20
133.3029431719827
 30
0.0
 10
-17.00343495210908
 20
133.2954156152176
 30
0.0
 10
-17.01541285210008
 20
133.2803226486534
 30
0.0
 10
-17.02700550017457
 20
133.2649317930339
 30
0.0
 10
-17.03281634867615
 20
133.2572170653125
 30
0.0
 11
-16.99746100961683
 21
133.3029431719827
 31
0.0
 11
-17.01528699863818
 21
133.2802863962336
 31
0.0
 11
-17.03281634867615
 21
133.2572170653125
 31
0.0
  0
SPLINE
  5
190
330
1F
100
AcDbEntity
  8
0
  6
Continuous
 62
     7
100
AcDbSpline
210
0.0
220
0.0
230
1.0
 70
     8
 71
     3
 72
    11
 73
     7
 74
     5
 42
0.000000001
 43
0.0000000001
 44
0.00000001
 40
0.0
 40
0.0
 40
0.0
 40
0.0
 40
0.6534692904672696
 40
1.565202090733695
 40
2.476934891000115
 40
3.130404181467438
 40
3.130404181467438
 40
3.130404181467438
 40
3.130404181467438
 10
-18.58175793544395
 20
135.0672659161481
 30
0.0
 10
-18.81124642550917
 20
135.0662809470211
 30
0.0
 10
-19.36092162586096
 20
135.0639217148184
 30
0.0
 10
-19.86192762228706
 20
134.3098082736323
 30
0.0
 10
-20.16461477738024
 20
133.4565354117798
 30
0.0
 10
-19.83669704293136
 20
133.0153797121767
 30
0.0
 10
-19.69979192419383
 20
132.8311979386483
 30
0.0
 11
-18.58175793544395
 21
135.0672659161481
 31
0.0
 11
-19.22959571895409
 21
134.9816602974734
 31
0.0
 11
-19.82542812670034
 21
134.291558525839
 31
0.0
 11
-20.02001009936012
 21
133.4008315366613
 31
0.0
 11
-19.69979192419383
 21
132.8311979386483
 31
0.0
  0
SPLINE
  5
191
330
1F
100
AcDbEntity
  8
0
  6
Continuous
 62
     7
100
AcDbSpline
210
0.0
220
0.0
230
1.0
 70
     8
 71
     3
 72
     9
 73
     5
 74
     3
 42
0.000000001
 43
0.0000000001
 44
0.00000001
 40
0.0
 40
0.0
 40
0.0
 40
0.0
 40
0.4506074208853937
 40
0.8430981305490459
 40
0.8430981305490459
 40
0.8430981305490459
 40
0.8430981305490459
 10
-19.32885625118497
 20
132.757533501018
 30
0.0
 10
-19.46756299094747
 20
132.6850832663761
 30
0.0
 10
-19.72708688996315
 20
132.5495270233583
 30
0.0
 10
-20.00826259157536
 20
132.6246141642085
 30
0.0
 10
-20.13915939509441
 20
132.6595697780352
 30
0.0
 11
-19.32885625118497
 21
132.757533501018
 31
0.0
 11
-19.7511613994159
 21
132.6003539482825
 31
0.0
 11
-20.13915939509441
 21
132.6595697780352
 31
0.0
  0
SPLINE
  5
192
330
1F
100
AcDbEntity
  8
0
  6
Continuous
 62
     7
100
AcDbSpline
210
0.0
220
0.0
230
1.0
 70
     8
 71
     3
 72
    11
 73
     7
 74
     5
 42
0.000000001
 43
0.0000000001
 44
0.00000001
 40
0.0
 40
0.0
 40
0.0
 40
0.0
 40
0.6011917471008393
 40
1.439985922720684
 40
2.278780098340549
 40
2.87997184544141
 40
2.87997184544141
 40
2.87997184544141
 40
2.87997184544141
 10
-19.65507056464482
 20
132.9206406577479
 30
0.0
 10
-19.78102327385631
 20
133.0900878893576
 30
0.0
 10
-20.08270758831169
 20
133.4959511333924
 30
0.0
 10
-19.8042354062554
 20
134.2809621656156
 30
0.0
 10
-19.34330988971064
 20
134.9747465305945
 30
0.0
 10
-18.83760870580958
 20
134.976917025451
 30
0.0
 10
-18.62647929499489
 20
134.9778231970477
 30
0.0
 11
-19.65507056464482
 21
132.9206406577479
 31
0.0
 11
-19.9496712857978
 21
133.4447035679198
 31
0.0
 11
-19.7706558709508
 21
134.2641723979633
 31
0.0
 11
-19.22249005582424
 21
134.8990660278669
 31
0.0
 11
-18.62647929499489
 21
134.9778231970477
 31
0.0
  0
SPLINE
  5
193
330
1F
100
AcDbEntity
  8
0
  6
Continuous
 62
     7
100
AcDbSpline
210
0.0
220
0.0
230
1.0
 70
     8
 71
     3
 72
     9
 73
     5
 74
     3
 42
0.000000001
 43
0.0000000001
 44
0.00000001
 40
0.0
 40
0.0
 40
0.0
 40
0.0
 40
0.1773549188904092
 40
0.3441182624009785
 40
0.3441182624009785
 40
0.3441182624009785
 40
0.3441182624009785
 10
-18.65916194540522
 20
134.070389863677
 30
0.0
 10
-18.62258747532242
 20
134.1169859293749
 30
0.0
 10
-18.55162273509487
 20
134.2073953463754
 30
0.0
 10
-18.46669845059648
 20
134.2848162275757
 30
0.0
 10
-18.4255432387245
 20
134.3223351972972
 30
0.0
 11
-18.65916194540522
 21
134.070389863677
 31
0.0
 11
-18.54573050529538
 21
134.2067279575678
 31
0.0
 11
-18.4255432387245
 21
134.3223351972972
 31
0.0
  0
SPLINE
  5
194
330
1F
100
AcDbEntity
  8
0
  6
Continuous
 62
     7
100
AcDbSpline
210
0.0
220
0.0
230
1.0
 70
     8
 71
     3
 72
     9
 73
     5
 74
     3
 42
0.000000001
 43
0.0000000001
 44
0.00000001
 40
0.0
 40
0.0
 40
0.0
 40
0.0
 40
0.1610294339965058
 40
0.3333191088522334
 40
0.3333191088522334
 40
0.3333191088522334
 40
0.3333191088522334
 10
-18.36892051413825
 20
134.2792833793408
 30
0.0
 10
-18.40997109300638
 20
134.2445145570152
 30
0.0
 10
-18.49494276440267
 20
134.1725456323641
 30
0.0
 10
-18.56542905280489
 20
134.0863131095809
 30
0.0
 10
-18.60186277913688
 20
134.0417402805428
 30
0.0
 11
-18.36892051413825
 21
134.2792833793408
 31
0.0
 11
-18.48869143981401
 21
134.1716478639547
 31
0.0
 11
-18.60186277913688
 21
134.0417402805428
 31
0.0
  0
SPLINE
  5
195
330
1F
100
AcDbEntity
  8
0
  6
Continuous
 62
     7
100
AcDbSpline
210
0.0
220
0.0
230
1.0
 70
     8
 71
     3
 72
     9
 73
     5
 74
     3
 42
0.000000001
 43
0.0000000001
 44
0.00000001
 40
0.0
 40
0.0
 40
0.0
 40
0.0
 40
0.3924907096636178
 40
0.8430981305489365
 40
0.8430981305489365
 40
0.8430981305489365
 40
0.8430981305489365
 10
-18.70807588949454
 20
135.5217367892349
 30
0.0
 10
-18.60157331632174
 20
135.4379927147157
 30
0.0
 10
-18.37279818267427
 20
135.2581044379361
 30
0.0
 10
-18.32552883767909
 20
134.9691515729129
 30
0.0
 10
-18.30026498153511
 20
134.8147160403178
 30
0.0
 11
-18.70807588949454
 21
135.5217367892349
 31
0.0
 11
-18.42790442828526
 21
135.2468678905438
 31
0.0
 11
-18.30026498153511
 21
134.8147160403178
 31
0.0
  0
SPLINE
  5
196
330
1F
100
AcDbEntity
  8
0
  6
Continuous
 62
     7
100
AcDbSpline
210
0.0
220
0.0
230
1.0
 70
     8
 71
     3
 72
     9
 73
     5
 74
     3
 42
0.000000001
 43
0.0000000001
 44
0.00000001
 40
0.0
 40
0.0
 40
0.0
 40
0.0
 40
0.1638914926127593
 40
0.3199814495815013
 40
0.3199814495815013
 40
0.3199814495815013
 40
0.3199814495815013
 10
-18.35816105655722
 20
134.8436640778288
 30
0.0
 10
-18.38757659695749
 20
134.8906650382792
 30
0.0
 10
-18.44500745886948
 20
134.9824296144012
 30
0.0
 10
-18.53692143049141
 20
135.0394505670912
 30
0.0
 10
-18.58175793544395
 20
135.0672659161481
 30
0.0
 11
-18.35816105655722
 21
134.8436640778288
 31
0.0
 11
-18.45545395786151
 21
134.9755523381406
 31
0.0
 11
-18.58175793544395
 21
135.0672659161481
 31
0.0
  0
SPLINE
  5
197
330
1F
100
AcDbEntity
  8
0
  6
Continuous
 62
     7
100
AcDbSpline
210
0.0
220
0.0
230
1.0
 70
     8
 71
     3
 72
     9
 73
     5
 74
     3
 42
0.000000001
 43
0.0000000001
 44
0.00000001
 40
0.0
 40
0.0
 40
0.0
 40
0.0
 40
0.2053156984408222
 40
0.438282972966308
 40
0.438282972966308
 40
0.438282972966308
 40
0.438282972966308
 10
-18.94949895050927
 20
132.7186666340983
 30
0.0
 10
-18.97059118361942
 20
132.7842922863692
 30
0.0
 10
-19.01561629720782
 20
132.9243819485334
 30
0.0
 10
-19.0121449385103
 20
133.0716601608853
 30
0.0
 10
-19.01029974345072
 20
133.1499452102676
 30
0.0
 11
-18.94949895050927
 21
132.7186666340983
 31
0.0
 11
-19.00213310218221
 21
132.9171211189638
 31
0.0
 11
-19.01029974345072
 21
133.1499452102676
 31
0.0
  0
SPLINE
  5
198
330
1F
100
AcDbEntity
  8
0
  6
Continuous
 62
     7
100
AcDbSpline
210
0.0
220
0.0
230
1.0
 70
     8
 71
     3
 72
    11
 73
     7
 74
     5
 42
0.000000001
 43
0.0000000001
 44
0.00000001
 40
0.0
 40
0.0
 40
0.0
 40
0.0
 40
0.9258302750493465
 40
1.891727309531538
 40
2.720929913646424
 40
3.354539094851041
 40
3.354539094851041
 40
3.354539094851041
 40
3.354539094851041
 10
-29.42917859608414
 20
137.8559968934534
 30
0.0
 10
-29.38642034681344
 20
138.1662857552439
 30
0.0
 10
-29.29905340498345
 20
138.800291713091
 30
0.0
 10
-28.79313697944482
 20
139.5616056713693
 30
0.0
 10
-28.12890049656459
 20
140.1423204925174
 30
0.0
 10
-27.62666052299925
 20
140.0708988320193
 30
0.0
 10
-27.40911793688272
 20
140.0399629112415
 30
0.0
 11
-29.42917859608414
 21
137.8559968934534
 31
0.0
 11
-29.23758099023242
 21
138.7617849742162
 31
0.0
 11
-28.7222143798453
 21
139.5787025589476
 31
0.0
 11
-28.04257710228401
 21
140.0537500795788
 31
0.0
 11
-27.40911793688272
 21
140.0399629112415
 31
0.0
  0
SPLINE
  5
199
330
1F
100
AcDbEntity
  8
0
  6
Continuous
 62
     7
100
AcDbSpline
210
0.0
220
0.0
230
1.0
 70
     8
 71
     3
 72
     9
 73
     5
 74
     3
 42
0.000000001
 43
0.0000000001
 44
0.00000001
 40
0.0
 40
0.0
 40
0.0
 40
0.0
 40
0.4894875211769367
 40
1.091415129062768
 40
1.091415129062768
 40
1.091415129062768
 40
1.091415129062768
 10
-28.97436552113257
 20
136.9094677427418
 30
0.0
 10
-29.1039472815365
 20
137.0191204823153
 30
0.0
 10
-29.39287698904876
 20
137.2636142831433
 30
0.0
 10
-29.41627457585525
 20
137.6454243709268
 30
0.0
 10
-29.42917859608414
 20
137.8559968934534
 30
0.0
 11
-28.97436552113257
 21
136.9094677427418
 31
0.0
 11
-29.30970106867586
 21
137.2660460744211
 31
0.0
 11
-29.42917859608414
 21
137.8559968934534
 31
0.0
  0
SPLINE
  5
19A
330
1F
100
AcDbEntity
  8
0
  6
Continuous
 62
     7
100
AcDbSpline
210
0.0
220
0.0
230
1.0
 70
     8
 71
     3
 72
    31
 73
    27
 74
    25
 42
0.000000001
 43
0.0000000001
 44
0.00000001
 40
0.0
 40
0.0
 40
0.0
 40
0.0
 40
0.0013412521615948
 40
0.0107300843082855
 40
0.0863122785338534
 40
0.1699371405899856
 40
0.2539943875500079
 40
0.333344436574379
 40
0.4086518469642109
 40
0.4910837308891217
 40
0.5615023727188798
 40
0.6265715615280537
 40
0.6880207350997393
 40
0.7415429567831296
 40
0.7797542837987692
 40
0.8797537331316454
 40
1.006220081240401
 40
1.162015814191282
 40
1.387504850169881
 40
1.630717957076877
 40
1.869974057570482
 40
2.10197797957923
 40
2.302111539344779
 40
2.476948471295193
 40
2.56652638715205
 40
2.656104314129573
 40
2.656104314129573
 40
2.656104314129573
 40
2.656104314129573
 10
-47.62553808612077
 20
77.25771923047343
 30
0.0
 10
-47.62510421787425
 20
77.2576113296907
 30
0.0
 10
-47.62163325327706
 20
77.25674810575987
 30
0.0
 10
-47.5937102630683
 20
77.24981590240183
 30
0.0
 10
-47.53926251080765
 20
77.2358724058171
 30
0.0
 10
-47.46193757637482
 20
77.21111697530169
 30
0.0
 10
-47.38675603872797
 20
77.17684623962153
 30
0.0
 10
-47.32159811648545
 20
77.1295250455455
 30
0.0
 10
-47.27690130780636
 20
77.06113403164102
 30
0.0
 10
-47.27141908916641
 20
76.98207958493325
 30
0.0
 10
-47.29556990913171
 20
76.91174139054041
 30
0.0
 10
-47.33961050273988
 20
76.86140067782108
 30
0.0
 10
-47.389409140116
 20
76.82729483898092
 30
0.0
 10
-47.43566571965779
 20
76.80535490907815
 30
0.0
 10
-47.49561942869851
 20
76.78316309070884
 30
0.0
 10
-47.58005024362939
 20
76.75728838675458
 30
0.0
 10
-47.70407056095468
 20
76.72783034235053
 30
0.0
 10
-47.86999679170754
 20
76.69436938007885
 30
0.0
 10
-48.07506867157738
 20
76.65850600961063
 30
0.0
 10
-48.30803670509232
 20
76.62088565984064
 30
0.0
 10
-48.54326701660674
 20
76.58366740800969
 30
0.0
 10
-48.76415954691899
 20
76.54767960765703
 30
0.0
 10
-48.96328787233801
 20
76.51183062890271
 30
0.0
 10
-49.11507674988846
 20
76.4810030330088
 30
0.0
 10
-49.22910775595602
 20
76.45008719704899
 30
0.0
 10
-49.28490146221402
 20
76.4286937971201
 30
0.0
 10
-49.31279831738263
 20
76.41799709722997
 30
0.0
 11
-47.62553808612077
 21
77.25771923047343
 31
0.0
 11
-47.62423646687436
 21
77.25739554792793
 31
0.0
 11
-47.61512513214947
 21
77.25512977010939
 31
0.0
 11
-47.54204230519825
 21
77.23585365705692
 31
0.0
 11
-47.4626390528811
 21
77.20961930731549
 31
0.0
 11
-47.38668055258686
 21
77.1736203207229
 31
0.0
 11
-47.32393198170437
 21
77.12505029711687
 31
0.0
 11
-47.28415851762245
 21
77.06110283633515
 31
0.0
 11
-47.27712533772998
 21
76.97897153821556
 31
0.0
 11
-47.30029130247264
 21
76.91247248995609
 31
0.0
 11
-47.34219266698535
 21
76.86269021207528
 31
0.0
 11
-47.39243503980482
 21
76.82731076771043
 31
0.0
 11
-47.44062402946776
 21
76.80402021999893
 31
0.0
 11
-47.47636524451085
 21
76.79050463207808
 31
0.0
 11
-47.57184776209428
 21
76.76078966915162
 31
0.0
 11
-47.69468803918951
 21
76.73072301189828
 31
0.0
 11
-47.84732332785674
 21
76.69950155477552
 31
0.0
 11
-48.06932348061267
 21
76.6599890519947
 31
0.0
 11
-48.30935916676671
 21
76.62080378806272
 31
0.0
 11
-48.54562676065588
 21
76.58310623222593
 31
0.0
 11
-48.77452814344761
 21
76.54529119969644
 31
0.0
 11
-48.97144564976679
 21
76.50955694008991
 31
0.0
 11
-49.14240096716182
 21
76.47292045145211
 31
0.0
 11
-49.2286284065992
 21
76.44865047153067
 31
0.0
 11
-49.31279831738263
 21
76.41799709722997
 31
0.0
  0
SPLINE
  5
19B
330
1F
100
AcDbEntity
  8
0
  6
Continuous
 62
     7
100
AcDbSpline
210
0.0
220
0.0
230
1.0
 70
     8
 71
     3
 72
    29
 73
    25
 74
    23
 42
0.000000001
 43
0.0000000001
 44
0.00000001
 40
0.0
 40
0.0
 40
0.0
 40
0.0
 40
0.1282501728831567
 40
0.2197758657931513
 40
0.2858264386783795
 40
0.3656816367781913
 40
0.4264249436356701
 40
0.4716778999299587
 40
0.4972790948420348
 40
0.583443459418481
 40
0.6627558679277049
 40
0.7338586029160314
 40
0.7845936383288271
 40
0.8845747329011959
 40
1.011030188140772
 40
1.166828719514888
 40
1.392308424005237
 40
1.635517260853764
 40
1.874776669776684
 40
2.106789945850305
 40
2.306959826929387
 40
2.481828864133928
 40
2.571429094122474
 40
2.661029335256284
 40
2.661029335256284
 40
2.661029335256284
 40
2.661029335256284
 10
-47.63121008271386
 20
78.2591102201613
 30
0.0
 10
-47.58979390546748
 20
78.2484634711046
 30
0.0
 10
-47.51882108795451
 20
78.23021867056241
 30
0.0
 10
-47.42912731045404
 20
78.19730006531776
 30
0.0
 10
-47.35924892578471
 20
78.15955822345718
 30
0.0
 10
-47.3078590437159
 20
78.11130624417194
 30
0.0
 10
-47.28072698748109
 20
78.05423858879698
 30
0.0
 10
-47.27451607571506
 20
78.01028075718332
 30
0.0
 10
-47.27787214515894
 20
77.95793643392518
 30
0.0
 10
-47.30334565355893
 20
77.89627953678209
 30
0.0
 10
-47.36293869277976
 20
77.84238849518253
 30
0.0
 10
-47.42231193602436
 20
77.81053601127785
 30
0.0
 10
-47.49153402618245
 20
77.78437960168841
 30
0.0
 10
-47.57995328352553
 20
77.75733039847445
 30
0.0
 10
-47.70396207350162
 20
77.72784776608766
 30
0.0
 10
-47.86988267490784
 20
77.69439304414087
 30
0.0
 10
-48.07495036769463
 20
77.6585248166614
 30
0.0
 10
-48.30791495810038
 20
77.62090517141668
 30
0.0
 10
-48.54314802711339
 20
77.58368630571164
 30
0.0
 10
-48.76405684841775
 20
77.54769702878531
 30
0.0
 10
-48.96321104850875
 20
77.5118454416581
 30
0.0
 10
-49.11503000527838
 20
77.4810140293997
 30
0.0
 10
-49.22908630095915
 20
77.45009360548246
 30
0.0
 10
-49.28489431054736
 20
77.42869593327063
 30
0.0
 10
-49.31279831738263
 20
77.41799709722997
 30
0.0
 11
-47.63121008271386
 21
78.2591102201613
 31
0.0
 11
-47.50764466051061
 21
78.2247635200039
 31
0.0
 11
-47.42216947609213
 21
78.19203821858297
 31
0.0
 11
-47.36467605335477
 21
78.15952384401432
 31
0.0
 11
-47.30776394703368
 21
78.10350719542626
 31
0.0
 11
-47.2819045291728
 21
78.04854320775924
 31
0.0
 11
-47.27557039229394
 21
78.00373574365784
 31
0.0
 11
-47.27723412891893
 21
77.97818866576655
 31
0.0
 11
-47.30957932090448
 21
77.89832574175611
 31
0.0
 11
-47.3668164240129
 21
77.84342244054461
 31
0.0
 11
-47.42902498107709
 21
77.80898852438979
 31
0.0
 11
-47.47628453492999
 21
77.79053375554948
 31
0.0
 11
-47.57174731944378
 21
77.76081715458268
 31
0.0
 11
-47.69457576066864
 21
77.73074795856172
 31
0.0
 11
-47.84721309792312
 21
77.69952255237406
 31
0.0
 11
-48.06920363126326
 21
77.66000925575277
 31
0.0
 11
-48.30923493362988
 21
77.62082364134162
 31
0.0
 11
-48.54550581322693
 21
77.58312568080046
 31
0.0
 11
-48.77441662462266
 21
77.54531033204755
 31
0.0
 11
-48.97137023446371
 21
77.5095716034744
 31
0.0
 11
-49.14235749410037
 21
77.47293095272082
 31
0.0
 11
-49.22860686109973
 21
77.44865651887207
 31
0.0
 11
-49.31279831738263
 21
77.41799709722997
 31
0.0
  0
SPLINE
  5
19C
330
1F
100
AcDbEntity
  8
0
  6
Continuous
 62
     7
100
AcDbSpline
210
0.0
220
0.0
230
1.0
 70
     8
 71
     3
 72
    28
 73
    24
 74
    22
 42
0.000000001
 43
0.0000000001
 44
0.00000001
 40
0.0
 40
0.0
 40
0.0
 40
0.0
 40
0.0372234865324455
 40
0.0722755681720508
 40
0.2038717827029063
 40
0.3217946110586852
 40
0.4324495412766354
 40
0.4912420054426194
 40
0.5637418255696476
 40
0.6564612184599358
 40
0.718936678668584
 40
0.8038105407566327
 40
0.9204008605208533
 40
1.115317324384272
 40
1.345440619781783
 40
1.583309358272067
 40
1.827494426660398
 40
2.057314120628665
 40
2.268810445742488
 40
2.408252704496473
 40
2.532838686486281
 40
2.593238095635797
 40
2.653637516333859
 40
2.653637516333859
 40
2.653637516333859
 40
2.653637516333859
 10
-49.22553808612085
 20
74.24687181593316
 30
0.0
 10
-49.23757348984682
 20
74.2498886386528
 30
0.0
 10
-49.26094222011215
 20
74.25574630268918
 30
0.0
 10
-49.32649671874348
 20
74.27371680636118
 30
0.0
 10
-49.41678686225714
 20
74.30243445984834
 30
0.0
 10
-49.52416830899445
 20
74.36203673553655
 30
0.0
 10
-49.57549730083024
 20
74.45073121726145
 30
0.0
 10
-49.57693651132276
 20
74.53286276649905
 30
0.0
 10
-49.55012263925386
 20
74.60494405193336
 30
0.0
 10
-49.49327718441444
 20
74.65894453972385
 30
0.0
 10
-49.42258968105289
 20
74.69676066063673
 30
0.0
 10
-49.33988403725026
 20
74.72745051290599
 30
0.0
 10
-49.21243452554484
 20
74.76253065123997
 30
0.0
 10
-49.03574770782692
 20
74.80007919187176
 30
0.0
 10
-48.81823202715169
 20
74.83902347678278
 30
0.0
 10
-48.5839274996937
 20
74.87722606441478
 30
0.0
 10
-48.34954449249437
 20
74.91426008061472
 30
0.0
 10
-48.12398437986279
 20
74.95078944306927
 30
0.0
 10
-47.93325843062074
 20
74.98405596458696
 30
0.0
 10
-47.777842361582
 20
75.01524676491212
 30
0.0
 10
-47.67241689160777
 20
75.03952428182166
 30
0.0
 10
-47.59405309360508
 20
75.06332303935525
 30
0.0
 10
-47.55686960275808
 20
75.07883664164574
 30
0.0
 10
-47.53827785486263
 20
75.08659344189198
 30
0.0
 11
-49.22553808612085
 21
74.24687181593316
 31
0.0
 11
-49.26161017212624
 21
74.25605839813832
 31
0.0
 11
-49.29542175914807
 21
74.26530096368678
 31
0.0
 11
-49.41979633978283
 21
74.30829546819537
 31
0.0
 11
-49.51906392521485
 21
74.37194874800394
 31
0.0
 11
-49.57228356241629
 21
74.46896515946527
 31
0.0
 11
-49.57354705045005
 21
74.52774404660101
 31
0.0
 11
-49.54840846187273
 21
74.59574607246026
 31
0.0
 11
-49.48324546261145
 21
74.66170567949717
 31
0.0
 11
-49.4286840782171
 21
74.6921398483771
 31
0.0
 11
-49.34952983088543
 21
74.72276953770424
 31
0.0
 11
-49.23741475274343
 21
74.75476191645245
 31
0.0
 11
-49.0470618915617
 21
74.79669301177853
 31
0.0
 11
-48.82067454464934
 21
74.83799071937013
 31
0.0
 11
-48.58597614092141
 21
74.87669725889518
 31
0.0
 11
-48.34484037237345
 21
74.91516658096354
 31
0.0
 11
-48.11803125112164
 21
74.95224371803843
 31
0.0
 11
-47.90979635211826
 21
74.98924266507902
 31
0.0
 11
-47.77312476335322
 21
75.01690166299991
 31
0.0
 11
-47.65202945244405
 21
75.04618634506714
 31
0.0
 11
-47.59440151291583
 21
75.06427251269201
 31
0.0
 11
-47.53827785486263
 21
75.08659344189198
 31
0.0
  0
SPLINE
  5
19D
330
1F
100
AcDbEntity
  8
0
  6
Continuous
 62
     7
100
AcDbSpline
210
0.0
220
0.0
230
1.0
 70
     8
 71
     3
 72
    31
 73
    27
 74
    25
 42
0.000000001
 43
0.0000000001
 44
0.00000001
 40
0.0
 40
0.0
 40
0.0
 40
0.0
 40
0.0846119012381176
 40
0.1554428853941274
 40
0.2058334681359578
 40
0.2772259456615891
 40
0.3570706904403823
 40
0.4438932455716946
 40
0.483417826874607
 40
0.5312338202690937
 40
0.5878505128521055
 40
0.6574055577938882
 40
0.713873073300214
 40
0.7887397225965881
 40
0.889453697068582
 40
1.023213982696246
 40
1.233384578087845
 40
1.469258834186682
 40
1.720380902420267
 40
1.970962575621618
 40
2.185846400081498
 40
2.379040685511539
 40
2.483082203414229
 40
2.568254370404197
 40
2.627912269807667
 40
2.655302031610133
 40
2.655302031610133
 40
2.655302031610133
 40
2.655302031610133
 10
-49.22553808612079
 20
75.24687147877695
 30
0.0
 10
-49.25287428978449
 20
75.25384249373579
 30
0.0
 10
-49.30309439182732
 20
75.2666491424308
 30
0.0
 10
-49.36840529500264
 20
75.28778598101776
 30
0.0
 10
-49.42854706518686
 20
75.3103999165316
 30
0.0
 10
-49.48807614720813
 20
75.34230719681922
 30
0.0
 10
-49.54804350730439
 20
75.39657231454962
 30
0.0
 10
-49.57532614510362
 20
75.46319228374517
 30
0.0
 10
-49.57618675789861
 20
75.52164911047332
 30
0.0
 10
-49.56503039054115
 20
75.5689629156631
 30
0.0
 10
-49.53516374503283
 20
75.61978596193353
 30
0.0
 10
-49.48877234493572
 20
75.66067141010959
 30
0.0
 10
-49.42998646372843
 20
75.69314595499758
 30
0.0
 10
-49.35778607031488
 20
75.72136610222934
 30
0.0
 10
-49.25877597959661
 20
75.75041115861109
 30
0.0
 10
-49.11439936769261
 20
75.78414821312323
 30
0.0
 10
-48.92456231971848
 20
75.82059138124308
 30
0.0
 10
-48.6954220152268
 20
75.85934598019205
 30
0.0
 10
-48.45262071756099
 20
75.89800493035713
 30
0.0
 10
-48.21670993208729
 20
75.93545619346352
 30
0.0
 10
-48.00023873613617
 20
75.97211978553243
 30
0.0
 10
-47.8323594501758
 20
76.00318708871342
 30
0.0
 10
-47.70809080454032
 20
76.03187874667324
 30
0.0
 10
-47.62839821465749
 20
76.05488485645738
 30
0.0
 10
-47.57349884783212
 20
76.07191339445866
 30
0.0
 10
-47.54670774325883
 20
76.08307988177152
 30
0.0
 10
-47.53827785485899
 20
76.08659344189441
 30
0.0
 11
-49.22553808612079
 21
75.24687147877695
 31
0.0
 11
-49.30728060063565
 21
75.2687195180952
 31
0.0
 11
-49.37468162200813
 21
75.29049405953877
 31
0.0
 11
-49.42163504757383
 21
75.30878576981024
 31
0.0
 11
-49.48412000860286
 21
75.3433185879372
 31
0.0
 11
-49.54171161231567
 21
75.3986213052483
 31
0.0
 11
-49.57398496593262
 21
75.47922271307203
 31
0.0
 11
-49.57467126752476
 21
75.51874133625222
 31
0.0
 11
-49.5636509256011
 21
75.56527005199048
 31
0.0
 11
-49.53529269864698
 21
75.61427271514184
 31
0.0
 11
-49.48396534514777
 21
75.66121318056132
 31
0.0
 11
-49.43492104230809
 21
75.6891995488604
 31
0.0
 11
-49.3655434361314
 21
75.71733783520843
 31
0.0
 11
-49.2691526137633
 21
75.74652883257816
 31
0.0
 11
-49.13906866234939
 21
75.77767333394235
 31
0.0
 11
-48.93285347927987
 21
75.818256309905
 31
0.0
 11
-48.70037486585184
 21
75.85813561858124
 31
0.0
 11
-48.45243943934889
 21
75.89801440380172
 31
0.0
 11
-48.20503325059448
 21
75.9377806281293
 31
0.0
 11
-47.99320558208838
 21
75.97389290631311
 31
0.0
 11
-47.80349180463171
 21
76.01039926511056
 31
0.0
 11
-47.70223056601813
 21
76.03429066182872
 31
0.0
 11
-47.62030030797251
 21
76.05756576994044
 31
0.0
 11
-47.5636623108133
 21
76.07630616983317
 31
0.0
 11
-47.53827785485899
 21
76.08659344189441
 31
0.0
  0
SPLINE
  5
19E
330
1F
100
AcDbEntity
  8
0
  6
Continuous
 62
     7
100
AcDbSpline
210
0.0
220
0.0
230
1.0
 70
     8
 71
     3
 72
    29
 73
    25
 74
    23
 42
0.000000001
 43
0.0000000001
 44
0.00000001
 40
0.0
 40
0.0
 40
0.0
 40
0.0
 40
0.1282259648035697
 40
0.2197375741233916
 40
0.2857807221078528
 40
0.3656515524754712
 40
0.4264036426920285
 40
0.4716578337763676
 40
0.4972460231353022
 40
0.583400758981984
 40
0.6627054063575198
 40
0.733803952554558
 40
0.7845440721754895
 40
0.8845248463511896
 40
1.010980111394594
 40
1.166778691522017
 40
1.392258233110022
 40
1.635466995416077
 40
1.874726462070314
 40
2.106739901353976
 40
2.306919716295356
 40
2.481795790392324
 40
2.571388536246807
 40
2.660981293246547
 40
2.660981293246547
 40
2.660981293246547
 40
2.660981293246547
 10
-47.63116334628458
 20
76.25909881332618
 30
0.0
 10
-47.589755191707
 20
76.24845328159569
 30
0.0
 10
-47.51879509128089
 20
76.23021030207798
 30
0.0
 10
-47.4291163939432
 20
76.1972948272678
 30
0.0
 10
-47.3592405572532
 20
76.15955274594077
 30
0.0
 10
-47.30784773384916
 20
76.11129413987632
 30
0.0
 10
-47.2807191472229
 20
76.05421475053065
 30
0.0
 10
-47.27451493126987
 20
76.0102569081089
 30
0.0
 10
-47.27787794217414
 20
75.95792035127025
 30
0.0
 10
-47.30335031197858
 20
75.89627540607003
 30
0.0
 10
-47.3629379127227
 20
75.84238960999866
 30
0.0
 10
-47.42230885744635
 20
75.81053776602221
 30
0.0
 10
-47.49153081315188
 20
75.78438041826763
 30
0.0
 10
-47.57995159736999
 20
75.7573309337065
 30
0.0
 10
-47.7039601779791
 20
75.72784814264583
 30
0.0
 10
-47.8698806841917
 20
75.69439342551804
 30
0.0
 10
-48.07494830255204
 20
75.65852515548161
 30
0.0
 10
-48.3079128333902
 20
75.62090550922903
 30
0.0
 10
-48.54314594986668
 20
75.58368663574709
 30
0.0
 10
-48.76405811706917
 20
75.54769683604155
 30
0.0
 10
-48.96321792659269
 20
75.51184419319179
 30
0.0
 10
-49.11503994368697
 20
75.48101187583815
 30
0.0
 10
-49.22909349770093
 20
75.45009145980168
 30
0.0
 10
-49.28489670946133
 20
75.4286952180439
 30
0.0
 10
-49.31279831738263
 20
75.41799709722997
 30
0.0
 11
-47.63116334628458
 21
76.25909881332618
 31
0.0
 11
-47.50762192574447
 21
76.22475615775504
 31
0.0
 11
-47.42216058376084
 21
76.19203409014823
 31
0.0
 11
-47.36467412232045
 21
76.15952248945042
 31
0.0
 11
-47.30775354634067
 21
76.10349216127749
 31
0.0
 11
-47.28189724087416
 21
76.04851700290824
 31
0.0
 11
-47.27556991522163
 21
76.00370732943679
 31
0.0
 11
-47.27723627868383
 21
75.97817345595726
 31
0.0
 11
-47.3095825201594
 21
75.89832134562607
 31
0.0
 11
-47.36681447757031
 21
75.84342389159734
 31
0.0
 11
-47.42901904750128
 21
75.80899142171863
 31
0.0
 11
-47.47628312653708
 21
75.79053426383759
 31
0.0
 11
-47.57174556659312
 21
75.76081763429214
 31
0.0
 11
-47.69457380115966
 21
75.73074839396871
 31
0.0
 11
-47.84721117407784
 21
75.69952291886146
 31
0.0
 11
-48.06920153948869
 21
75.66000960838429
 31
0.0
 11
-48.30923276532676
 21
75.62082398785283
 31
0.0
 11
-48.5455037022578
 21
75.58312602024523
 31
0.0
 11
-48.77441467816439
 21
75.54531066597677
 31
0.0
 11
-48.97137804783394
 21
75.50957008432827
 31
0.0
 11
-49.14237207492099
 21
75.47292743069956
 31
0.0
 11
-49.22861408744158
 21
75.44865449065162
 31
0.0
 11
-49.31279831738263
 21
75.41799709722997
 31
0.0
  0
SPLINE
  5
19F
330
1F
100
AcDbEntity
  8
0
  6
Continuous
 62
     7
100
AcDbSpline
210
0.0
220
0.0
230
1.0
 70
     8
 71
     3
 72
    23
 73
    19
 74
    17
 42
0.000000001
 43
0.0000000001
 44
0.00000001
 40
0.0
 40
0.0
 40
0.0
 40
0.0
 40
0.2018090971247018
 40
0.3417886328493003
 40
0.4592759007343617
 40
0.595658394652371
 40
0.7435154402256061
 40
0.9107904845751456
 40
1.102880542455713
 40
1.330645636816733
 40
1.568121826944674
 40
1.812690919391458
 40
2.043829788298184
 40
2.256838399383484
 40
2.400360041582486
 40
2.528195624037742
 40
2.589433133130232
 40
2.650670653785095
 40
2.650670653785095
 40
2.650670653785095
 40
2.650670653785095
 10
-47.62553808612083
 20
75.25778124631658
 30
0.0
 10
-47.56078058409546
 20
75.24081463785748
 30
0.0
 10
-47.45110575653047
 20
75.21207958846158
 30
0.0
 10
-47.31084685765445
 20
75.13523294144542
 30
0.0
 10
-47.2585851393623
 20
75.00273782169577
 30
0.0
 10
-47.31288485933941
 20
74.86448705312613
 30
0.0
 10
-47.45302824881375
 20
74.79371412466836
 30
0.0
 10
-47.61445677185596
 20
74.74762260719622
 30
0.0
 10
-47.80627293368946
 20
74.70620329642941
 30
0.0
 10
-48.02179650883602
 20
74.6674616461043
 30
0.0
 10
-48.25533969299597
 20
74.62923738750384
 30
0.0
 10
-48.49014306635746
 20
74.59213642730738
 30
0.0
 10
-48.71677743708925
 20
74.5555189896046
 30
0.0
 10
-48.90979974052742
 20
74.52201954821419
 30
0.0
 10
-49.06814685171739
 20
74.49045829378136
 30
0.0
 10
-49.1762625015837
 20
74.46572384565411
 30
0.0
 10
-49.25622591607845
 20
74.44153495168356
 30
0.0
 10
-49.29394084864995
 20
74.4258430481589
 30
0.0
 10
-49.31279831738269
 20
74.41799709722997
 30
0.0
 11
-47.62553808612083
 21
75.25778124631658
 31
0.0
 11
-47.43311175710346
 21
75.1969616474844
 31
0.0
 11
-47.3171208223845
 21
75.11860111110597
 31
0.0
 11
-47.27565638319354
 21
75.00867404965875
 31
0.0
 11
-47.32279996165247
 21
74.88069878436117
 31
0.0
 11
-47.44754750046918
 21
74.8013277663186
 31
0.0
 11
-47.60721640137066
 21
74.7514601070516
 31
0.0
 11
-47.79472115722997
 21
74.70974011772569
 31
0.0
 11
-48.01874018343543
 21
74.66860115162416
 31
0.0
 11
-48.25303060880694
 21
74.62983341202744
 31
0.0
 11
-48.49454402065109
 21
74.5912936548982
 31
0.0
 11
-48.72266971269374
 21
74.55409358502709
 31
0.0
 11
-48.93242733200466
 21
74.51702055908454
 31
0.0
 11
-49.07313452120457
 21
74.4887371983292
 31
0.0
 11
-49.19742643340121
 21
74.45884645187189
 31
0.0
 11
-49.25587328460746
 21
74.44057083003786
 31
0.0
 11
-49.31279831738269
 21
74.41799709722997
 31
0.0
  0
SPLINE
  5
1A0
330
1F
100
AcDbEntity
  8
0
  6
Continuous
 62
     7
100
AcDbSpline
210
0.0
220
0.0
230
1.0
 70
     8
 71
     3
 72
    15
 73
    11
 74
     9
 42
0.000000001
 43
0.0000000001
 44
0.00000001
 40
0.0
 40
0.0
 40
0.0
 40
0.0
 40
0.105848722222837
 40
0.1875533011249578
 40
0.2323843002110533
 40
0.2912906719498338
 40
0.3572279165965358
 40
0.4294922213963097
 40
0.4501447377816309
 40
0.467473082532771
 40
0.467473082532771
 40
0.467473082532771
 40
0.467473082532771
 10
-47.62553808612083
 20
74.25771922975586
 30
0.0
 10
-47.59136008979012
 20
74.24891799124214
 30
0.0
 10
-47.53080011501942
 20
74.23332307779262
 30
0.0
 10
-47.45749511622221
 20
74.20794595075185
 30
0.0
 10
-47.40087201414585
 20
74.18299644349034
 30
0.0
 10
-47.35234407076967
 20
74.15341078873529
 30
0.0
 10
-47.3046840205259
 20
74.10680596200093
 30
0.0
 10
-47.28214874013319
 20
74.05707359225636
 30
0.0
 10
-47.27608731803699
 20
74.02074156394501
 30
0.0
 10
-47.27571015610223
 20
74.00807448400344
 30
0.0
 10
-47.2755380861208
 20
74.0022952695622
 30
0.0
 11
-47.62553808612083
 21
74.25771922975586
 31
0.0
 11
-47.52344899803414
 21
74.22975911440257
 31
0.0
 11
-47.44639661041643
 21
74.20258250975995
 31
0.0
 11
-47.40554442212878
 21
74.18411856558536
 31
0.0
 11
-47.35558371739917
 21
74.15291137561327
 31
0.0
 11
-47.30935777395631
 21
74.10589135290267
 31
0.0
 11
-47.27970986952894
 21
74.03998891051268
 31
0.0
 11
-47.2764104673302
 21
74.01960164687947
 31
0.0
 11
-47.2755380861208
 21
74.0022952695622
 31
0.0
  0
SPLINE
  5
1A1
330
1F
100
AcDbEntity
  8
0
  6
Continuous
 62
     7
100
AcDbSpline
210
0.0
220
0.0
230
1.0
 70
     8
 71
     3
 72
    25
 73
    21
 74
    19
 42
0.000000001
 43
0.0000000001
 44
0.00000001
 40
0.0
 40
0.0
 40
0.0
 40
0.0
 40
0.0847046484229829
 40
0.155592715099248
 40
0.2285792116585972
 40
0.3294789142357195
 40
0.4414857731815982
 40
0.5271871589256825
 40
0.6562186027569907
 40
0.7882541744601974
 40
1.024096839031857
 40
1.234852288613634
 40
1.47097258309071
 40
1.72286950145681
 40
1.97383538213005
 40
2.188018344308555
 40
2.380321639781595
 40
2.515485096603066
 40
2.613569194370426
 40
2.651481814329745
 40
2.651481814329745
 40
2.651481814329745
 40
2.651481814329745
 10
-49.22553808612079
 20
76.246871477561
 30
0.0
 10
-49.2528990971363
 20
76.25385964618809
 30
0.0
 10
-49.30315813258238
 20
76.26669611249459
 30
0.0
 10
-49.37574642629598
 20
76.29006267640791
 30
0.0
 10
-49.45167359004702
 20
76.31996788603455
 30
0.0
 10
-49.53301692064082
 20
76.3733500168315
 30
0.0
 10
-49.58238907813885
 20
76.46752431478404
 30
0.0
 10
-49.56974907499474
 20
76.58095508385232
 30
0.0
 10
-49.48599911794025
 20
76.67213433202438
 30
0.0
 10
-49.33071173107295
 20
76.73323219893106
 30
0.0
 10
-49.14312583092139
 20
76.77862339978734
 30
0.0
 10
-48.91959313432214
 20
76.82150468820092
 30
0.0
 10
-48.68990284620116
 20
76.86022991809634
 30
0.0
 10
-48.4466417445859
 20
76.8989643972703
 30
0.0
 10
-48.21056746523808
 20
76.93639838235305
 30
0.0
 10
-47.9945570373222
 20
76.97327972608299
 30
0.0
 10
-47.81687693081456
 20
77.00569143702491
 30
0.0
 10
-47.67911253846729
 20
77.03988184550535
 30
0.0
 10
-47.59278170094743
 20
77.06684438773523
 30
0.0
 10
-47.55015981370097
 20
77.08228810426259
 30
0.0
 10
-47.53827785485893
 20
77.08659344189444
 30
0.0
 11
-49.22553808612079
 21
76.246871477561
 31
0.0
 11
-49.30736964240494
 21
76.2687455610168
 31
0.0
 11
-49.37482262667359
 21
76.29054494022216
 31
0.0
 11
-49.44222875771272
 21
76.31853497774334
 31
0.0
 11
-49.52415761849254
 21
76.37742820197047
 31
0.0
 11
-49.57379201245297
 21
76.47783718426233
 31
0.0
 11
-49.56448770082635
 21
76.56303200580155
 31
0.0
 11
-49.48219734815572
 21
76.66241717666054
 31
0.0
 11
-49.36259852620663
 21
76.71835924251704
 31
0.0
 11
-49.13459082810064
 21
76.77864401218471
 31
0.0
 11
-48.92776978804689
 21
76.8191769301063
 31
0.0
 11
-48.69503406042858
 21
76.85901252792877
 31
0.0
 11
-48.44632916843183
 21
76.89898669848277
 31
0.0
 11
-48.19854874033231
 21
76.9388456086142
 31
0.0
 11
-47.987427204095
 21
76.97492937461449
 31
0.0
 11
-47.79861900470721
 21
77.01142624173367
 31
0.0
 11
-47.66752827766168
 21
77.04435618902951
 31
0.0
 11
-47.57397627183272
 21
77.07382672659095
 31
0.0
 11
-47.53827785485893
 21
77.08659344189444
 31
0.0
  0
SPLINE
  5
1A2
330
1F
100
AcDbEntity
  8
0
  6
Continuous
 62
     7
100
AcDbSpline
210
0.0
220
0.0
230
1.0
 70
     8
 71
     3
 72
    30
 73
    26
 74
    24
 42
0.000000001
 43
0.0000000001
 44
0.00000001
 40
0.0
 40
0.0
 40
0.0
 40
0.0
 40
0.0846639676630774
 40
0.1555270038653979
 40
0.206155828512864
 40
0.2773466537516945
 40
0.3568218373700859
 40
0.4431879269113735
 40
0.4984349771787332
 40
0.5669062983115034
 40
0.6540625051773037
 40
0.7100659621398971
 40
0.7842483574329732
 40
0.8841398135873136
 40
1.017014082015449
 40
1.226358244118544
 40
1.461821928620309
 40
1.713312024669839
 40
1.964651626054756
 40
2.180384190628337
 40
2.374526586193756
 40
2.479502384328133
 40
2.565604300690982
 40
2.626261297761228
 40
2.654806126570094
 40
2.654806126570094
 40
2.654806126570094
 40
2.654806126570094
 10
-49.22553808612079
 20
77.2468714780942
 30
0.0
 10
-49.25289081457446
 20
77.25384773137007
 30
0.0
 10
-49.30313754836659
 20
77.26666305311065
 30
0.0
 10
-49.36855267813065
 20
77.28782752280881
 30
0.0
 10
-49.42870249110592
 20
77.31048885968748
 30
0.0
 10
-49.48811782877281
 20
77.34235958971634
 30
0.0
 10
-49.54783409766697
 20
77.3964030640318
 30
0.0
 10
-49.57721085945165
 20
77.46762438503391
 30
0.0
 10
-49.57537489677839
 20
77.53872184688503
 30
0.0
 10
-49.54861480487389
 20
77.60574280248913
 30
0.0
 10
-49.49633559679381
 20
77.65611619299722
 30
0.0
 10
-49.43308119280653
 20
77.69170743181147
 30
0.0
 10
-49.36161413130107
 20
77.72008888702243
 30
0.0
 10
-49.26346075050378
 20
77.7491930276174
 30
0.0
 10
-49.11996010449944
 20
77.7829907348272
 30
0.0
 10
-48.93085094776428
 20
77.81946894489803
 30
0.0
 10
-48.70201260381448
 20
77.85827700653108
 30
0.0
 10
-48.45898032275176
 20
77.89700210667482
 30
0.0
 10
-48.22241610549054
 20
77.9345333470458
 30
0.0
 10
-48.00509066168351
 20
77.97125604301151
 30
0.0
 10
-47.83630346935335
 20
78.00240934142114
 30
0.0
 10
-47.71108013205146
 20
78.03113255331824
 30
0.0
 10
-47.63042669499043
 20
78.054238943695
 30
0.0
 10
-47.57449497315073
 20
78.07143166397097
 30
0.0
 10
-47.54705782016768
 20
78.0829178376204
 30
0.0
 10
-47.53827785485893
 20
78.08659344189444
 30
0.0
 11
-49.22553808612079
 21
77.2468714780942
 31
0.0
 11
-49.3073305871186
 21
77.26873413740559
 31
0.0
 11
-49.37476078691404
 21
77.29052262234623
 31
0.0
 11
-49.42192585181726
 21
77.3089273648314
 31
0.0
 11
-49.48421831661959
 21
77.34339158485915
 31
0.0
 11
-49.5415634917309
 21
77.39841735875679
 31
0.0
 11
-49.57388668756104
 21
77.47850676285152
 31
0.0
 11
-49.57257533164537
 21
77.53373824871244
 31
0.0
 11
-49.54736699608041
 21
77.59740033987885
 31
0.0
 11
-49.48630492029466
 21
77.65959059365998
 31
0.0
 11
-49.43790006959785
 21
77.6877572008958
 31
0.0
 11
-49.36931066989222
 21
77.71601533667615
 31
0.0
 11
-49.27380154777437
 21
77.74527812728343
 31
0.0
 11
-49.14463752984094
 21
77.77645869899999
 31
0.0
 11
-48.93927414149321
 21
77.81708944398943
 31
0.0
 11
-48.70721920436623
 21
77.85701002954771
 31
0.0
 11
-48.45892604110004
 21
77.8969821893795
 31
0.0
 11
-48.21076699081883
 21
77.93684044918707
 31
0.0
 11
-47.99808975024651
 21
77.97301959404626
 31
0.0
 11
-47.80742007697037
 21
78.00957564833996
 31
0.0
 11
-47.70521465097618
 21
78.0335332968057
 31
0.0
 11
-47.62234179390584
 21
78.05689200762438
 31
0.0
 11
-47.56472252283992
 21
78.07584698718946
 31
0.0
 11
-47.53827785485893
 21
78.08659344189444
 31
0.0
  0
SPLINE
  5
1A3
330
1F
100
AcDbEntity
  8
0
  6
Continuous
 62
     7
100
AcDbSpline
210
0.0
220
0.0
230
1.0
 70
     8
 71
     3
 72
    23
 73
    19
 74
    17
 42
0.000000001
 43
0.0000000001
 44
0.00000001
 40
0.0
 40
0.0
 40
0.0
 40
0.0
 40
0.1680791441148463
 40
0.2720019742911376
 40
0.3270842836040027
 40
0.4024916860992578
 40
0.4908019970908199
 40
0.5832897344987125
 40
0.6498995031228061
 40
0.7390441193959031
 40
0.8689167988172155
 40
1.056013758760795
 40
1.27046789503578
 40
1.508259849208429
 40
1.725663032121276
 40
1.942239576960956
 40
2.149083794096457
 40
2.337527172179714
 40
2.337527172179714
 40
2.337527172179714
 40
2.337527172179714
 10
-49.22553808612079
 20
78.24687128368866
 30
0.0
 10
-49.27976891584041
 20
78.26101473803217
 30
0.0
 10
-49.36753050371794
 20
78.28390305103062
 30
0.0
 10
-49.46795951599911
 20
78.32905093193364
 30
0.0
 10
-49.52945646992367
 20
78.37816945963762
 30
0.0
 10
-49.57110579443729
 20
78.44040607278929
 30
0.0
 10
-49.58195594311032
 20
78.52925619119988
 30
0.0
 10
-49.54674095450926
 20
78.60817857201596
 30
0.0
 10
-49.485245824656
 20
78.66515661277172
 30
0.0
 10
-49.39920359719862
 20
78.70795852393712
 30
0.0
 10
-49.26990078475923
 20
78.7485477358815
 30
0.0
 10
-49.09705562254127
 20
78.7879159757093
 30
0.0
 10
-48.88757192229235
 20
78.8271207489965
 30
0.0
 10
-48.66738274532207
 20
78.86382561800784
 30
0.0
 10
-48.44623503085142
 20
78.89897325445358
 30
0.0
 10
-48.23530409249071
 20
78.93266462449928
 30
0.0
 10
-48.03404285041049
 20
78.9657924064307
 30
0.0
 10
-47.90461458447862
 20
78.99051120753856
 30
0.0
 10
-47.8429129269891
 20
79.00229526956176
 30
0.0
 11
-49.22553808612079
 21
78.24687128368866
 31
0.0
 11
-49.3866095792086
 21
78.29489811044861
 31
0.0
 11
-49.47991968059577
 21
78.34064939134062
 31
0.0
 11
-49.52245039194356
 21
78.37565224037039
 31
0.0
 11
-49.56350918703541
 21
78.43890136567285
 31
0.0
 11
-49.57381265544991
 21
78.52660854831859
 31
0.0
 11
-49.53739141926522
 21
78.61162310917445
 31
0.0
 11
-49.48930370362118
 21
78.65771468225103
 31
0.0
 11
-49.41085022691739
 21
78.70004451791011
 31
0.0
 11
-49.28775544817577
 21
78.74145211349807
 31
0.0
 11
-49.10574382641826
 21
78.78477696636126
 31
0.0
 11
-48.89510089099642
 21
78.825027816942
 31
0.0
 11
-48.66063045060307
 21
78.86463370624854
 31
0.0
 11
-48.44596778077862
 21
78.89904420351122
 31
0.0
 11
-48.23212550929483
 21
78.93334992948515
 31
0.0
 11
-48.02815292723379
 21
78.96769692454137
 31
0.0
 11
-47.8429129269891
 21
79.00229526956176
 31
0.0
  0
SPLINE
  5
1A4
330
1F
100
AcDbEntity
  8
0
  6
Continuous
 62
     7
100
AcDbSpline
210
0.0
220
0.0
230
1.0
 70
     8
 71
     3
 72
    23
 73
    19
 74
    17
 42
0.000000001
 43
0.0000000001
 44
0.00000001
 40
0.0
 40
0.0
 40
0.0
 40
0.0
 40
0.0205871775406885
 40
0.0460608930648496
 40
0.1343384813456088
 40
0.2148072866872875
 40
0.2819425860720479
 40
0.3629434377104089
 40
0.4676339682848317
 40
0.6006900093373779
 40
0.8161700482495757
 40
1.05425909544615
 40
1.306456473708979
 40
1.554876770839038
 40
1.762671870751239
 40
1.947713772797765
 40
2.067765461993684
 40
2.187817155712107
 40
2.187817155712107
 40
2.187817155712107
 40
2.187817155712107
 10
-47.2755380861208
 20
79.0022952695622
 30
0.0
 10
-47.27578266617856
 20
78.9954285037819
 30
0.0
 10
-47.2763298734965
 20
78.98006508802709
 30
0.0
 10
-47.2851877600874
 20
78.93598652277365
 30
0.0
 10
-47.31885053704262
 20
78.87741851962154
 30
0.0
 10
-47.38310913664088
 20
78.83004843585421
 30
0.0
 10
-47.45249240911924
 20
78.79818003073919
 30
0.0
 10
-47.53237747525095
 20
78.77100766090823
 30
0.0
 10
-47.63509008041557
 20
78.74364580981995
 30
0.0
 10
-47.78265952212998
 20
78.71114081793787
 30
0.0
 10
-47.97495290825162
 20
78.67549302979853
 30
0.0
 10
-48.2070333018346
 20
78.63695521656035
 30
0.0
 10
-48.4502348498293
 20
78.59841973332776
 30
0.0
 10
-48.6834148692267
 20
78.5611492270324
 30
0.0
 10
-48.89404407910342
 20
78.52469571954408
 30
0.0
 10
-49.06199788112073
 20
78.49270644608035
 30
0.0
 10
-49.19969388425204
 20
78.45844975770426
 30
0.0
 10
-49.27509684050675
 20
78.43148132144346
 30
0.0
 10
-49.31279831738263
 20
78.41799709722997
 30
0.0
 11
-47.2755380861208
 21
79.0022952695622
 31
0.0
 11
-47.27676923473349
 21
78.98174492860035
 31
0.0
 11
-47.28165926282154
 21
78.95674497690902
 31
0.0
 11
-47.32478036971698
 21
78.87971574669379
 31
0.0
 11
-47.3881052631995
 21
78.8300651042307
 31
0.0
 11
-47.44866323924848
 21
78.80108442317102
 31
0.0
 11
-47.52511387115281
 21
78.77431804926722
 31
0.0
 11
-47.62610449900677
 21
78.74673181711974
 31
0.0
 11
-47.75593416062876
 21
78.71760847668142
 31
0.0
 11
-47.9676480865084
 21
78.67749787108403
 31
0.0
 11
-48.20243927762911
 21
78.6380074805056
 31
0.0
 11
-48.45146976934835
 21
78.5981661472841
 31
0.0
 11
-48.69669291710423
 21
78.55843892847346
 31
0.0
 11
-48.90140813959923
 21
78.52279511700333
 31
0.0
 11
-49.08287748854283
 21
78.48660974981082
 31
0.0
 11
-49.19910346632742
 21
78.45654432322061
 31
0.0
 11
-49.31279831738263
 21
78.41799709722997
 31
0.0
  0
SPLINE
  5
1A5
330
1F
100
AcDbEntity
  8
0
  6
Continuous
 62
     7
100
AcDbSpline
210
0.0
220
0.0
230
1.0
 70
     8
 71
     3
 72
    10
 73
     6
 74
     4
 42
0.000000001
 43
0.0000000001
 44
0.00000001
 40
0.0
 40
0.0
 40
0.0
 40
0.0
 40
0.1776920246678008
 40
0.2927625439371596
 40
0.3418183675231378
 40
0.3418183675231378
 40
0.3418183675231378
 40
0.3418183675231378
 10
-47.27895424986301
 20
83.69755561210819
 30
0.0
 10
-47.22051460971759
 20
83.69499407013194
 30
0.0
 10
-47.12423038836781
 20
83.69077368387605
 30
0.0
 10
-47.00509587228562
 20
83.68010959676941
 30
0.0
 10
-46.95709354792227
 20
83.70788113944903
 30
0.0
 10
-46.94274610646059
 20
83.71618179939348
 30
0.0
 11
-47.27895424986301
 21
83.69755561210819
 31
0.0
 11
-47.1015160748717
 21
83.68806097780184
 31
0.0
 11
-46.98661040204676
 21
83.69421824701209
 31
0.0
 11
-46.94274610646059
 21
83.71618179939348
 31
0.0
  0
SPLINE
  5
1A6
330
1F
100
AcDbEntity
  8
0
  6
Continuous
 62
     7
100
AcDbSpline
210
0.0
220
0.0
230
1.0
 70
     8
 71
     3
 72
    10
 73
     6
 74
     4
 42
0.000000001
 43
0.0000000001
 44
0.00000001
 40
0.0
 40
0.0
 40
0.0
 40
0.0
 40
0.0490558243940093
 40
0.1641263458562115
 40
0.3418183738631086
 40
0.3418183738631086
 40
0.3418183738631086
 40
0.3418183738631086
 10
-49.9083300721351
 20
83.7161817993935
 30
0.0
 10
-49.89398263039499
 20
83.70788113939098
 30
0.0
 10
-49.84598030501315
 20
83.68010959646664
 30
0.0
 10
-49.72684578680005
 20
83.69077368401108
 30
0.0
 10
-49.63056156362543
 20
83.69499407051477
 30
0.0
 10
-49.5721219223785
 20
83.69755561264121
 30
0.0
 11
-49.9083300721351
 21
83.7161817993935
 31
0.0
 11
-49.86446577571757
 21
83.6942182468677
 31
0.0
 11
-49.74956010068703
 21
83.68806097783673
 31
0.0
 11
-49.5721219223785
 21
83.69755561264121
 31
0.0
  0
ARC
  5
1A7
102
{ACAD_REACTORS
330
1F6
102
}
330
1F
100
AcDbEntity
  8
1
  6
Continuous
 62
     7
100
AcDbCircle
 10
-9.16184965562863
 20
6.41666666666663
 30
0.0
 40
0.0833333333333545
100
AcDbArc
 50
209.9999999999622
 51
330.0000000000182
  0
ARC
  5
1A8
102
{ACAD_REACTORS
330
1F7
102
}
330
1F
100
AcDbEntity
  8
1
  6
Continuous
 62
     7
100
AcDbCircle
 10
-10.32851632229531
 20
5.13501057401635
 30
0.0
 40
0.3333333333333215
100
AcDbArc
 50
180.0000000000104
 51
240.0183606311564
  0
ARC
  5
1A9
330
1F
100
AcDbEntity
  8
1
  6
Continuous
 62
     7
100
AcDbCircle
 10
-13.32842375540858
 20
6.25
 30
0.0
 40
0.0833333333333053
100
AcDbArc
 50
119.9816393688866
 51
240.0183606311338
  0
ARC
  5
1AA
330
1F
100
AcDbEntity
  8
1
  6
Continuous
 62
     7
100
AcDbCircle
 10
-4.99527555584868
 20
6.25
 30
0.0
 40
0.0833333333333293
100
AcDbArc
 50
299.9816393688334
 51
60.01836063114615
  0
ARC
  5
1AB
102
{ACAD_REACTORS
330
1F9
102
}
330
1F
100
AcDbEntity
  8
1
  6
Continuous
 62
     7
100
AcDbCircle
 10
-7.82851632229532
 20
7.46125008008369
 30
0.0
 40
0.1666666666666874
100
AcDbArc
 50
60.01836063114941
 51
180.0
  0
ARC
  5
1AC
102
{ACAD_REACTORS
330
1F9
102
}
330
1F
100
AcDbEntity
  8
1
  6
Continuous
 62
     7
100
AcDbCircle
 10
-7.82851632229532
 20
5.03874991991631
 30
0.0
 40
0.1666666666666279
100
AcDbArc
 50
180.0
 51
299.9816393688506
  0
MTEXT
  5
1AE
330
1F
100
AcDbEntity
  8
1
 62
     7
100
AcDbMText
 10
-86.99999999999997
 20
8.74999999999997
 30
0.0
 40
1.25
 41
0.0
 71
     5
 72
     1
  1
dimensions in mm
  7
CONVERTER_11
 73
     1
 44
0.60024009603842
  0
MTEXT
  5
1B0
330
1F
100
AcDbEntity
  8
1
 62
     7
100
AcDbMText
 10
-97.00000000000003
 20
75.7499999999999
 30
0.0
 40
2.0
 41
0.0
 71
     5
 72
     1
  1
Diritti riservati      All rights reserved
  7
CONVERTER_12
 11
0.0
 21
1.0
 31
0.0
 73
     1
 44
1.32052821128451
  0
MTEXT
  5
1B1
330
1F
100
AcDbEntity
  8
1
 62
     7
100
AcDbMText
 10
-93.99999999999997
 20
6.24999999999994
 30
0.0
 40
1.5
 41
0.0
 71
     4
 72
     1
  1
Date
  7
CONVERTER_12
 73
     1
 44
1.32052821128451
  0
MTEXT
  5
1B2
330
1F
100
AcDbEntity
  8
1
 62
     7
100
AcDbMText
 10
-88.69999999999999
 20
6.24999999999994
 30
0.0
 40
1.5
 41
0.0
 71
     4
 72
     1
  1
03/10/17
  7
CONVERTER_12
 73
     1
 44
1.32052821128451
  0
MTEXT
  5
1B3
330
1F
100
AcDbEntity
  8
1
 62
     7
100
AcDbMText
 10
-93.99999999999997
 20
3.74999999999994
 30
0.0
 40
1.5
 41
0.0
 71
     4
 72
     1
  1
Sign.
  7
CONVERTER_12
 73
     1
 44
1.32052821128451
  0
MTEXT
  5
1B4
330
1F
100
AcDbEntity
  8
1
 62
     7
100
AcDbMText
 10
-88.69999999999999
 20
3.74999999999994
 30
0.0
 40
1.5
 41
0.0
 71
     4
 72
     1
  1
T.Tedeschi
  7
CONVERTER_12
 73
     1
 44
1.32052821128451
  0
MTEXT
  5
1B5
330
1F
100
AcDbEntity
  8
1
 62
     7
100
AcDbMText
 10
-76.36184965562862
 20
6.25
 30
0.0
 40
2.25
 41
0.0
 71
     4
 72
     1
  1
CLM DD\Pmale contact for 1mm plastic fibre POF
  7
CONVERTER_12
 73
     1
 44
0.90036014405762
  0
MTEXT
  5
1B6
330
1F
100
AcDbEntity
  8
1
 62
     7
100
AcDbMText
 10
-20.16184965562863
 20
8.13031971037799
 30
0.0
 40
1.5
 41
0.0
 71
     5
 72
     1
  1
Scale
  7
CONVERTER_12
 73
     1
 44
1.32052821128451
  0
MTEXT
  5
1B7
330
1F
100
AcDbEntity
  8
1
 62
     7
100
AcDbMText
 10
-20.16184965562863
 20
5.03031971037803
 30
0.0
 40
2.25
 41
0.0
 71
     5
 72
     1
  1
2:1
  7
CONVERTER_12
 73
     1
 44
1.32052821128451
  0
DIMENSION
  5
1C5
330
1F
100
AcDbEntity
  8
1
100
AcDbDimension
  2
*D3
 10
-50.1755380861206
 20
101.343404817295
 30
0.0
 11
-48.42553808612061
 21
103.168404817295
 31
0.0
 70
    32
  1
<>
 71
     5
 42
-1.0
 53
0.00013888888889
  3
ME10_DIM_10
100
AcDbAlignedDimension
 13
-46.67553808612061
 23
98.30229526956222
 33
0.0
 14
-50.17553808612061
 24
98.30229526956222
 34
0.0
100
AcDbRotatedDimension
  0
DIMENSION
  5
1D2
330
1F
100
AcDbEntity
  8
1
100
AcDbDimension
  2
*D4
 10
-49.20053808612088
 20
62.65043562439503
 30
0.0
 11
-54.87139399806404
 21
64.47543562439503
 31
0.0
 70
    32
  1
ø1,55
 71
     5
 42
-1.0
 53
0.00013888888889
  3
ME10_DIM_11
100
AcDbAlignedDimension
 13
-47.65053808612086
 23
68.50229526956319
 33
0.0
 14
-49.20053808612087
 24
68.50229526956319
 34
0.0
100
AcDbRotatedDimension
  0
DIMENSION
  5
1DD
330
1F
100
AcDbEntity
  8
1
100
AcDbDimension
  2
*D5
 10
-54.88531444839477
 20
83.70229526956322
 30
0.0
 11
-56.71031444839477
 21
76.1022952695632
 31
0.0
 70
    32
  1
<>
 71
     5
 42
-1.0
 53
90.0
  3
ME10_DIM_12
100
AcDbAlignedDimension
 13
-49.20053808612087
 23
68.50229526956319
 33
0.0
 14
-50.00674587400883
 24
83.70229526956322
 34
0.0
 50
90.0
100
AcDbRotatedDimension
  0
DIMENSION
  5
1E8
330
1F
100
AcDbEntity
  8
1
100
AcDbDimension
  2
*D6
 10
-38.63570378023998
 20
98.3022952695622
 30
0.0
 11
-40.46070378023998
 21
83.4022952695627
 31
0.0
 70
    32
  1
<>
 71
     5
 42
-1.0
 53
90.0
  3
ME10_DIM_13
100
AcDbAlignedDimension
 13
-47.65053808612086
 23
68.50229526956319
 33
0.0
 14
-46.67553808612061
 24
98.30229526956222
 34
0.0
 50
90.0
100
AcDbRotatedDimension
  0
DIMENSION
  5
1F4
330
1F
100
AcDbEntity
  8
1
100
AcDbDimension
  2
*D7
 10
-73.41922588182857
 20
126.1180281613771
 30
0.0
 11
-73.41922588182857
 21
116.6180281613771
 31
0.0
 70
    32
  1
<>
 71
     5
 42
-1.0
 53
0.00013888888889
  3
ME10_DIM_14
100
AcDbAlignedDimension
 13
-80.12329174230317
 23
107.1180281613771
 33
0.0
 14
-79.52329174230314
 24
126.1180281613771
 34
0.0
 50
90.0
100
AcDbRotatedDimension
  0
HATCH
  5
1F5
330
1F
100
AcDbEntity
  8
1
  6
Continuous
 62
     7
100
AcDbHatch
 10
0.0
 20
0.0
 30
0.0
210
0.0
220
0.0
230
1.0
  2
SOLID
 70
     1
 71
     1
 91
        1
 92
        1
 93
        4
 72
     1
 10
-81.72329174230313
 20
134.1109927506105
 11
-79.5232917423032
 21
134.866548306166
 72
     1
 10
-79.5232917423032
 20
134.866548306166
 11
-79.52329174230314
 21
126.1180281613771
 72
     1
 10
-79.52329174230314
 20
126.1180281613771
 11
-81.72329174230319
 21
126.1180281613771
 72
     1
 10
-81.72329174230319
 20
126.1180281613771
 11
-81.72329174230313
 21
134.1109927506105
 97
        4
330
FA
330
F9
330
FE
330
F8
 75
     0
 76
     1
 98
        1
 10
0.0
 20
0.0
  0
HATCH
  5
1F6
330
1F
100
AcDbEntity
  8
1
  6
Continuous
 62
     7
100
AcDbHatch
 10
0.0
 20
0.0
 30
0.0
210
0.0
220
0.0
230
1.0
  2
SOLID
 70
     1
 71
     1
 91
        1
 92
        1
 93
       16
 72
     2
 10
-8.460999428532972
 20
7.865608656017285
 40
0.1324831062376575
 50
210.0000000000254
 51
360.0
 73
     0
 72
     1
 10
-8.328516322295314
 20
7.865608656017285
 11
-8.328516322295314
 21
4.654134535300898
 72
     2
 10
-8.495182988961943
 20
4.654134535300898
 40
0.1666666666666856
 50
0.0
 51
180.0
 73
     0
 72
     1
 10
-8.661849655628629
 20
4.654134535300898
 11
-8.661849655628629
 21
6.25
 72
     1
 10
-8.661849655628629
 20
6.25
 11
-8.661849655628629
 21
7.11602540378442
 72
     1
 10
-8.661849655628629
 20
7.11602540378442
 11
-9.089680871979937
 21
6.375
 72
     2
 10
-9.161849655628629
 20
6.41666666666663
 40
0.0833333333333545
 50
29.99999999998175
 51
150.0000000000378
 73
     0
 72
     1
 10
-9.234018439277378
 20
6.375
 11
-9.661849655628629
 21
7.11602540378442
 72
     1
 10
-9.661849655628629
 20
7.11602540378442
 11
-9.661849655628629
 21
6.25
 72
     1
 10
-9.661849655628629
 20
6.25
 11
-9.661849655628629
 21
5.423792536316455
 72
     2
 10
-9.828516322295314
 20
5.423792536316455
 40
0.1666666666666856
 50
0.0
 51
180.0
 73
     0
 72
     1
 10
-9.995182988962
 20
5.423792536316455
 11
-9.995182988962
 21
6.25
 72
     1
 10
-9.995182988962
 20
6.25
 11
-9.995182988962
 21
7.865608656017285
 72
     2
 10
-9.862699882724343
 20
7.865608656017285
 40
0.1324831062376673
 50
180.0
 51
329.9999999999869
 73
     0
 72
     1
 10
-9.747966147150265
 20
7.931850209136145
 11
-9.161849655628629
 21
6.91666666666663
 72
     1
 10
-9.161849655628629
 20
6.91666666666663
 11
-8.575733164106992
 21
7.931850209136145
 97
       16
330
117
330
13E
330
116
330
118
330
13F
330
119
330
111
330
110
330
1A7
330
10F
330
10E
330
11A
330
140
330
11B
330
141
330
11C
 75
     0
 76
     1
 98
        1
 10
0.0
 20
0.0
  0
HATCH
  5
1F7
330
1F
100
AcDbEntity
  8
1
  6
Continuous
 62
     7
100
AcDbHatch
 10
0.0
 20
0.0
 30
0.0
210
0.0
220
0.0
230
1.0
  2
SOLID
 70
     1
 71
     1
 91
        1
 92
        1
 93
        7
 72
     2
 10
-10.495182988962
 20
7.461250080083685
 40
0.1666666666666909
 50
0.0
 51
180.0
 73
     1
 72
     1
 10
-10.66184965562863
 20
7.461250080083685
 11
-10.66184965562863
 21
5.13501057401629
 72
     2
 10
-10.32851632229531
 20
5.13501057401635
 40
0.3333333333333215
 50
180.0000000000104
 51
240.0183606311564
 73
     1
 72
     1
 10
-10.49509047345848
 20
4.846282045333453
 11
-9.411803397876923
 21
4.221308732497903
 72
     2
 10
-9.328516322295314
 20
4.365672996839351
 40
0.1666666666666854
 50
240.0183606311493
 51
420.0183606311494
 73
     1
 72
     1
 10
-9.245229246713706
 20
4.510037261180798
 11
-10.32851632229531
 21
5.13501057401635
 72
     1
 10
-10.32851632229531
 20
5.13501057401635
 11
-10.32851632229531
 21
7.461250080083685
 97
        7
330
142
330
11D
330
1A8
330
120
330
143
330
11F
330
11E
 75
     0
 76
     1
 98
        1
 10
0.0
 20
0.0
  0
HATCH
  5
1F8
330
1F
100
AcDbEntity
  8
1
  6
Continuous
 62
     7
100
AcDbHatch
 10
0.0
 20
0.0
 30
0.0
210
0.0
220
0.0
230
1.0
  2
SOLID
 70
     1
 71
     1
 91
        1
 92
        1
 93
        5
 72
     2
 10
-11.16184965562863
 20
7.07663469546833
 40
0.1666666666666305
 50
0.0
 51
180.0
 73
     1
 72
     1
 10
-11.32851632229531
 20
7.07663469546833
 11
-11.32851632229531
 21
5.423365304531615
 72
     2
 10
-11.16184965562863
 20
5.423365304531615
 40
0.1666666666666785
 50
180.0
 51
360.0
 73
     1
 72
     1
 10
-10.995182988962
 20
5.423365304531615
 11
-10.995182988962
 21
5.51962595863165
 72
     1
 10
-10.995182988962
 20
5.51962595863165
 11
-10.995182988962
 21
7.07663469546833
 97
        5
330
144
330
123
330
145
330
122
330
121
 75
     0
 76
     1
 98
        1
 10
0.0
 20
0.0
  0
HATCH
  5
1F9
330
1F
100
AcDbEntity
  8
1
  6
Continuous
 62
     7
100
AcDbHatch
 10
0.0
 20
0.0
 30
0.0
210
0.0
220
0.0
230
1.0
  2
SOLID
 70
     1
 71
     1
 91
        1
 92
        1
 93
       14
 72
     2
 10
-7.828516322295315
 20
7.461250080083685
 40
0.1666666666666874
 50
60.01836063114941
 51
180.0
 73
     1
 72
     1
 10
-7.995182988961943
 20
7.461250080083685
 11
-7.995182988961943
 21
5.038749919916315
 72
     2
 10
-7.828516322295315
 20
5.038749919916315
 40
0.1666666666666279
 50
180.0
 51
299.9816393688506
 73
     1
 72
     1
 10
-7.745229246713706
 20
4.894385655574865
 11
-7.078562580047077
 21
5.279001040190165
 72
     2
 10
-7.161849655628629
 20
5.423365304531615
 40
0.1666666666666586
 50
299.9816393688334
 51
479.9816393688407
 73
     1
 72
     1
 10
-7.245136731210238
 20
5.56772956887312
 11
-7.661849655628629
 21
5.32731826632397
 72
     1
 10
-7.661849655628629
 20
5.32731826632397
 11
-7.661849655628629
 21
6.083333333333315
 72
     1
 10
-7.661849655628629
 20
6.083333333333315
 11
-7.161849655628629
 21
6.083333333333315
 72
     2
 10
-7.161849655628629
 20
6.25
 40
0.1666666666666847
 50
270.0
 51
450.0
 73
     1
 72
     1
 10
-7.161849655628629
 20
6.41666666666663
 11
-7.661849655628629
 21
6.41666666666663
 72
     1
 10
-7.661849655628629
 20
6.41666666666663
 11
-7.661849655628629
 21
7.17268173367597
 72
     1
 10
-7.661849655628629
 20
7.17268173367597
 11
-7.245136731210238
 21
6.93227043112688
 72
     2
 10
-7.161849655628629
 20
7.07663469546833
 40
0.1666666666666878
 50
240.0183606311498
 51
420.0183606311564
 73
     1
 72
     1
 10
-7.078562580047077
 20
7.22099895980972
 11
-7.745229246713706
 21
7.605614344425135
 97
       14
330
146
330
125
330
126
330
127
330
147
330
128
330
129
330
12A
330
148
330
12B
330
1AC
330
10D
330
1AB
330
124
 75
     0
 76
     1
 98
        1
 10
0.0
 20
0.0
  0
ENDSEC
  0
SECTION
  2
OBJECTS
  0
DICTIONARY
  5
C
330
0
100
AcDbDictionary
281
     1
  3
ACAD_GROUP
350
D
  3
ACAD_LAYOUT
350
1A
  3
ACAD_MATERIAL
350
43
  3
ACAD_MLEADERSTYLE
350
1FC
  3
ACAD_MLINESTYLE
350
17
  3
ACAD_PLOTSETTINGS
350
19
  3
ACAD_PLOTSTYLENAME
350
E
  3
ACAD_SCALELIST
350
47
  3
ACAD_VISUALSTYLE
350
2A
  3
AcDbVariableDictionary
350
1FA
  0
DICTIONARY
  5
D
102
{ACAD_REACTORS
330
C
102
}
330
C
100
AcDbDictionary
281
     1
  0
DICTIONARY
  5
1A
102
{ACAD_REACTORS
330
C
102
}
330
C
100
AcDbDictionary
281
     1
  3
Layout1
350
1E
  3
Layout2
350
26
  3
Model
350
22
  0
DICTIONARY
  5
43
102
{ACAD_REACTORS
330
C
102
}
330
C
100
AcDbDictionary
281
     1
  3
ByBlock
350
45
  3
ByLayer
350
44
  3
Global
350
46
  0
DICTIONARY
  5
1FC
102
{ACAD_REACTORS
330
C
102
}
330
C
100
AcDbDictionary
281
     1
  0
DICTIONARY
  5
17
102
{ACAD_REACTORS
330
C
102
}
330
C
100
AcDbDictionary
281
     1
  3
Standard
350
18
  0
DICTIONARY
  5
19
102
{ACAD_REACTORS
330
C
102
}
330
C
100
AcDbDictionary
281
     1
  0
ACDBDICTIONARYWDFLT
  5
E
102
{ACAD_REACTORS
330
C
102
}
330
C
100
AcDbDictionary
281
     1
  3
Normal
350
F
100
AcDbDictionaryWithDefault
340
F
  0
DICTIONARY
  5
47
102
{ACAD_REACTORS
330
C
102
}
330
C
100
AcDbDictionary
281
     1
  3
A0
350
48
  3
A1
350
49
  3
A2
350
4A
  3
A3
350
4B
  3
A4
350
4C
  3
A5
350
4D
  3
A6
350
4E
  3
A7
350
4F
  3
A8
350
50
  3
A9
350
51
  3
B0
350
52
  3
B1
350
53
  3
B2
350
54
  3
B3
350
55
  3
B4
350
56
  3
B5
350
57
  3
B6
350
58
  3
B7
350
59
  3
B8
350
5A
  3
B9
350
5B
  3
C0
350
5C
  3
C1
350
5D
  3
C2
350
5E
  3
C3
350
5F
  3
C4
350
60
  3
C5
350
61
  3
C6
350
62
  3
C7
350
63
  3
C8
350
64
  3
C9
350
65
  3
D0
350
66
  3
D1
350
67
  3
D2
350
68
  0
DICTIONARY
  5
2A
102
{ACAD_REACTORS
330
C
102
}
330
C
100
AcDbDictionary
281
     1
  3
2dWireframe
350
2F
  3
Basic
350
32
  3
Brighten
350
36
  3
ColorChange
350
3A
  3
Conceptual
350
34
  3
Dim
350
35
  3
EdgeColorOff
350
3D
  3
Facepattern
350
39
  3
Flat
350
2B
  3
FlatWithEdges
350
2C
  3
Gouraud
350
2D
  3
GouraudWithEdges
350
2E
  3
Hidden
350
31
  3
JitterOff
350
3B
  3
Linepattern
350
38
  3
OverhangOff
350
3C
  3
Realistic
350
33
  3
Shaded
350
42
  3
Shaded with edges
350
41
  3
Shades of Gray
350
3E
  3
Sketchy
350
3F
  3
Thicken
350
37
  3
Wireframe
350
30
  3
X-Ray
350
40
  0
DICTIONARY
  5
1FA
102
{ACAD_REACTORS
330
C
102
}
330
C
100
AcDbDictionary
281
     1
  3
CANNOSCALE
350
201
  3
DIMASSOC
350
1FF
  3
HIDETEXT
350
200
  3
MSLTSCALE
350
202
  0
LAYOUT
  5
1E
102
{ACAD_REACTORS
330
1A
102
}
330
1A
100
AcDbPlotSettings
  1

  2
none_device
  4

  6

 40
0.0
 41
0.0
 42
0.0
 43
0.0
 44
0.0
 45
0.0
 46
0.0
 47
0.0
 48
0.0
 49
0.0
140
0.0
141
0.0
142
1.0
143
1.0
 70
   688
 72
     0
 73
     0
 74
     5
  7

 75
    16
147
1.0
148
0.0
149
0.0
100
AcDbLayout
  1
Layout1
 70
     1
 71
     1
 10
0.0
 20
0.0
 11
12.0
 21
9.0
 12
0.0
 22
0.0
 32
0.0
 14
1.00000000000000E+20
 24
1.00000000000000E+20
 34
1.00000000000000E+20
 15
-1.00000000000000E+20
 25
-1.00000000000000E+20
 35
-1.00000000000000E+20
146
0.0
 13
0.0
 23
0.0
 33
0.0
 16
1.0
 26
0.0
 36
0.0
 17
0.0
 27
1.0
 37
0.0
 76
     0
330
1B
  0
LAYOUT
  5
26
102
{ACAD_REACTORS
330
1A
102
}
330
1A
100
AcDbPlotSettings
  1

  2
none_device
  4

  6

 40
0.0
 41
0.0
 42
0.0
 43
0.0
 44
0.0
 45
0.0
 46
0.0
 47
0.0
 48
0.0
 49
0.0
140
0.0
141
0.0
142
1.0
143
1.0
 70
   688
 72
     0
 73
     0
 74
     5
  7

 75
    16
147
1.0
148
0.0
149
0.0
100
AcDbLayout
  1
Layout2
 70
     1
 71
     2
 10
0.0
 20
0.0
 11
0.0
 21
0.0
 12
0.0
 22
0.0
 32
0.0
 14
0.0
 24
0.0
 34
0.0
 15
0.0
 25
0.0
 35
0.0
146
0.0
 13
0.0
 23
0.0
 33
0.0
 16
1.0
 26
0.0
 36
0.0
 17
0.0
 27
1.0
 37
0.0
 76
     0
330
23
  0
LAYOUT
  5
22
102
{ACAD_REACTORS
330
1A
102
}
330
1A
100
AcDbPlotSettings
  1

  2
none_device
  4
Letter_(8.50_x_11.00_Inches)
  6

 40
6.35
 41
6.35
 42
6.35000508
 43
6.35000508
 44
215.9
 45
279.4
 46
0.0
 47
0.0
 48
0.0
 49
0.0
140
0.0
141
0.0
142
1.0
143
1.0
 70
  1712
 72
     0
 73
     0
 74
     0
  7

 75
     0
147
1.0
148
0.0
149
0.0
100
AcDbLayout
  1
Model
 70
     1
 71
     0
 10
0.0
 20
0.0
 11
12.0
 21
9.0
 12
0.0
 22
0.0
 32
0.0
 14
-105.0
 24
0.0
 34
0.0
 15
0.00000000000006
 25
148.5000000000001
 35
0.0
146
0.0
 13
0.0
 23
0.0
 33
0.0
 16
1.0
 26
0.0
 36
0.0
 17
0.0
 27
1.0
 37
0.0
 76
     0
330
1F
331
29
  0
MATERIAL
  5
45
102
{ACAD_REACTORS
330
43
102
}
102
{ACAD_XDICTIONARY
360
235
102
}
330
43
100
AcDbMaterial
  1
ByBlock
  0
MATERIAL
  5
44
102
{ACAD_REACTORS
330
43
102
}
102
{ACAD_XDICTIONARY
360
233
102
}
330
43
100
AcDbMaterial
  1
ByLayer
  0
MATERIAL
  5
46
102
{ACAD_REACTORS
330
43
102
}
102
{ACAD_XDICTIONARY
360
237
102
}
330
43
100
AcDbMaterial
  1
Global
  0
MLINESTYLE
  5
18
102
{ACAD_REACTORS
330
17
102
}
330
17
100
AcDbMlineStyle
  2
Standard
 70
     0
  3

 62
   256
 51
90.0
 52
90.0
 71
     2
 49
0.5
 62
   256
  6
BYLAYER
 49
-0.5
 62
   256
  6
BYLAYER
  0
ACDBPLACEHOLDER
  5
F
102
{ACAD_REACTORS
330
E
102
}
330
E
  0
SCALE
  5
48
102
{ACAD_REACTORS
330
47
102
}
330
47
100
AcDbScale
 70
     0
300
1:1
140
1.0
141
1.0
290
     1
  0
SCALE
  5
49
102
{ACAD_REACTORS
330
47
102
}
330
47
100
AcDbScale
 70
     0
300
1:2
140
1.0
141
2.0
290
     0
  0
SCALE
  5
4A
102
{ACAD_REACTORS
330
47
102
}
330
47
100
AcDbScale
 70
     0
300
1:4
140
1.0
141
4.0
290
     0
  0
SCALE
  5
4B
102
{ACAD_REACTORS
330
47
102
}
330
47
100
AcDbScale
 70
     0
300
1:5
140
1.0
141
5.0
290
     0
  0
SCALE
  5
4C
102
{ACAD_REACTORS
330
47
102
}
330
47
100
AcDbScale
 70
     0
300
1:8
140
1.0
141
8.0
290
     0
  0
SCALE
  5
4D
102
{ACAD_REACTORS
330
47
102
}
330
47
100
AcDbScale
 70
     0
300
1:10
140
1.0
141
10.0
290
     0
  0
SCALE
  5
4E
102
{ACAD_REACTORS
330
47
102
}
330
47
100
AcDbScale
 70
     0
300
1:16
140
1.0
141
16.0
290
     0
  0
SCALE
  5
4F
102
{ACAD_REACTORS
330
47
102
}
330
47
100
AcDbScale
 70
     0
300
1:20
140
1.0
141
20.0
290
     0
  0
SCALE
  5
50
102
{ACAD_REACTORS
330
47
102
}
330
47
100
AcDbScale
 70
     0
300
1:30
140
1.0
141
30.0
290
     0
  0
SCALE
  5
51
102
{ACAD_REACTORS
330
47
102
}
330
47
100
AcDbScale
 70
     0
300
1:40
140
1.0
141
40.0
290
     0
  0
SCALE
  5
52
102
{ACAD_REACTORS
330
47
102
}
330
47
100
AcDbScale
 70
     0
300
1:50
140
1.0
141
50.0
290
     0
  0
SCALE
  5
53
102
{ACAD_REACTORS
330
47
102
}
330
47
100
AcDbScale
 70
     0
300
1:100
140
1.0
141
100.0
290
     0
  0
SCALE
  5
54
102
{ACAD_REACTORS
330
47
102
}
330
47
100
AcDbScale
 70
     0
300
2:1
140
2.0
141
1.0
290
     0
  0
SCALE
  5
55
102
{ACAD_REACTORS
330
47
102
}
330
47
100
AcDbScale
 70
     0
300
4:1
140
4.0
141
1.0
290
     0
  0
SCALE
  5
56
102
{ACAD_REACTORS
330
47
102
}
330
47
100
AcDbScale
 70
     0
300
8:1
140
8.0
141
1.0
290
     0
  0
SCALE
  5
57
102
{ACAD_REACTORS
330
47
102
}
330
47
100
AcDbScale
 70
     0
300
10:1
140
10.0
141
1.0
290
     0
  0
SCALE
  5
58
102
{ACAD_REACTORS
330
47
102
}
330
47
100
AcDbScale
 70
     0
300
100:1
140
100.0
141
1.0
290
     0
  0
SCALE
  5
59
102
{ACAD_REACTORS
330
47
102
}
330
47
100
AcDbScale
 70
     0
300
1/128" = 1'-0"
140
0.0078125
141
12.0
290
     0
  0
SCALE
  5
5A
102
{ACAD_REACTORS
330
47
102
}
330
47
100
AcDbScale
 70
     0
300
1/64" = 1'-0"
140
0.015625
141
12.0
290
     0
  0
SCALE
  5
5B
102
{ACAD_REACTORS
330
47
102
}
330
47
100
AcDbScale
 70
     0
300
1/32" = 1'-0"
140
0.03125
141
12.0
290
     0
  0
SCALE
  5
5C
102
{ACAD_REACTORS
330
47
102
}
330
47
100
AcDbScale
 70
     0
300
1/16" = 1'-0"
140
0.0625
141
12.0
290
     0
  0
SCALE
  5
5D
102
{ACAD_REACTORS
330
47
102
}
330
47
100
AcDbScale
 70
     0
300
3/32" = 1'-0"
140
0.09375
141
12.0
290
     0
  0
SCALE
  5
5E
102
{ACAD_REACTORS
330
47
102
}
330
47
100
AcDbScale
 70
     0
300
1/8" = 1'-0"
140
0.125
141
12.0
290
     0
  0
SCALE
  5
5F
102
{ACAD_REACTORS
330
47
102
}
330
47
100
AcDbScale
 70
     0
300
3/16" = 1'-0"
140
0.1875
141
12.0
290
     0
  0
SCALE
  5
60
102
{ACAD_REACTORS
330
47
102
}
330
47
100
AcDbScale
 70
     0
300
1/4" = 1'-0"
140
0.25
141
12.0
290
     0
  0
SCALE
  5
61
102
{ACAD_REACTORS
330
47
102
}
330
47
100
AcDbScale
 70
     0
300
3/8" = 1'-0"
140
0.375
141
12.0
290
     0
  0
SCALE
  5
62
102
{ACAD_REACTORS
330
47
102
}
330
47
100
AcDbScale
 70
     0
300
1/2" = 1'-0"
140
0.5
141
12.0
290
     0
  0
SCALE
  5
63
102
{ACAD_REACTORS
330
47
102
}
330
47
100
AcDbScale
 70
     0
300
3/4" = 1'-0"
140
0.75
141
12.0
290
     0
  0
SCALE
  5
64
102
{ACAD_REACTORS
330
47
102
}
330
47
100
AcDbScale
 70
     0
300
1" = 1'-0"
140
1.0
141
12.0
290
     0
  0
SCALE
  5
65
102
{ACAD_REACTORS
330
47
102
}
330
47
100
AcDbScale
 70
     0
300
1-1/2" = 1'-0"
140
1.5
141
12.0
290
     0
  0
SCALE
  5
66
102
{ACAD_REACTORS
330
47
102
}
330
47
100
AcDbScale
 70
     0
300
3" = 1'-0"
140
3.0
141
12.0
290
     0
  0
SCALE
  5
67
102
{ACAD_REACTORS
330
47
102
}
330
47
100
AcDbScale
 70
     0
300
6" = 1'-0"
140
6.0
141
12.0
290
     0
  0
SCALE
  5
68
102
{ACAD_REACTORS
330
47
102
}
330
47
100
AcDbScale
 70
     0
300
1'-0" = 1'-0"
140
12.0
141
12.0
290
     0
  0
VISUALSTYLE
  5
2F
102
{ACAD_REACTORS
330
2A
102
}
102
{ACAD_XDICTIONARY
360
20B
102
}
330
2A
100
AcDbVisualStyle
  2
2dWireframe
 70
     4
 71
     0
 72
     2
 73
     0
 90
        0
 40
0.6
 41
30.0
 62
     5
 63
     7
 74
     1
 91
        4
 64
     7
 65
   257
 75
     1
175
     1
 42
1.0
 92
        0
 66
   257
 43
1.0
 76
     1
 77
     6
 78
     2
 67
     7
 79
     5
170
     0
171
     0
290
     0
174
     0
 93
        1
 44
0.0
173
     0
291
     0
 45
0.0
1001
ACAD
1000
AcDbSavedByObjectVersion
1070
     0
  0
VISUALSTYLE
  5
32
102
{ACAD_REACTORS
330
2A
102
}
102
{ACAD_XDICTIONARY
360
211
102
}
330
2A
100
AcDbVisualStyle
  2
Basic
 70
     7
 71
     1
 72
     0
 73
     1
 90
        0
 40
0.6
 41
30.0
 62
     5
 63
     7
 74
     0
 91
        4
 64
     7
 65
   257
 75
     1
175
     1
 42
1.0
 92
        8
 66
     7
 43
1.0
 76
     1
 77
     6
 78
     2
 67
     7
 79
     5
170
     0
171
     0
290
     0
174
     0
 93
        1
 44
0.0
173
     0
291
     1
 45
0.0
1001
ACAD
1000
AcDbSavedByObjectVersion
1070
     0
  0
VISUALSTYLE
  5
36
102
{ACAD_REACTORS
330
2A
102
}
102
{ACAD_XDICTIONARY
360
219
102
}
330
2A
100
AcDbVisualStyle
  2
Brighten
 70
    12
 71
     2
 72
     2
 73
     0
 90
        0
 40
0.6
 41
30.0
 62
     5
 63
     7
 74
     1
 91
        4
 64
     7
 65
   257
 75
     1
175
     1
 42
1.0
 92
        8
 66
     7
 43
1.0
 76
     1
 77
     6
 78
     2
 67
     7
 79
     5
170
     0
171
     0
290
     0
174
     0
 93
        1
 44
50.0
173
     0
291
     1
 45
0.0
1001
ACAD
1000
AcDbSavedByObjectVersion
1070
     0
  0
VISUALSTYLE
  5
3A
102
{ACAD_REACTORS
330
2A
102
}
102
{ACAD_XDICTIONARY
360
221
102
}
330
2A
100
AcDbVisualStyle
  2
ColorChange
 70
    16
 71
     2
 72
     2
 73
     3
 90
        0
 40
0.6
 41
30.0
 62
     5
 63
     8
 74
     1
 91
        4
 64
     7
 65
   257
 75
     1
175
     1
 42
1.0
 92
        8
 66
     8
 43
1.0
 76
     1
 77
     6
 78
     2
 67
     7
 79
     5
170
     0
171
     0
290
     0
174
     0
 93
        1
 44
0.0
173
     0
291
     1
 45
0.0
1001
ACAD
1000
AcDbSavedByObjectVersion
1070
     0
  0
VISUALSTYLE
  5
34
102
{ACAD_REACTORS
330
2A
102
}
102
{ACAD_XDICTIONARY
360
215
102
}
330
2A
100
AcDbVisualStyle
  2
Conceptual
 70
     9
 71
     3
 72
     2
 73
     0
 90
        0
 40
0.6
 41
30.0
 62
     5
 63
     7
 74
     2
 91
        2
 64
     7
 65
   257
 75
     1
175
     1
 42
179.0
 92
        8
 66
     7
 43
1.0
 76
     1
 77
     6
 78
     2
 67
     7
 79
     3
170
     0
171
     0
290
     0
174
     0
 93
        1
 44
0.0
173
     0
291
     0
 45
0.0
1001
ACAD
1000
AcDbSavedByObjectVersion
1070
     0
  0
VISUALSTYLE
  5
35
102
{ACAD_REACTORS
330
2A
102
}
102
{ACAD_XDICTIONARY
360
217
102
}
330
2A
100
AcDbVisualStyle
  2
Dim
 70
    11
 71
     2
 72
     2
 73
     0
 90
        0
 40
0.6
 41
30.0
 62
     5
 63
     7
 74
     1
 91
        4
 64
     7
 65
   257
 75
     1
175
     1
 42
1.0
 92
        8
 66
     7
 43
1.0
 76
     1
 77
     6
 78
     2
 67
     7
 79
     5
170
     0
171
     0
290
     0
174
     0
 93
        1
 44
-50.0
173
     0
291
     1
 45
0.0
1001
ACAD
1000
AcDbSavedByObjectVersion
1070
     0
  0
VISUALSTYLE
  5
3D
102
{ACAD_REACTORS
330
2A
102
}
102
{ACAD_XDICTIONARY
360
227
102
}
330
2A
100
AcDbVisualStyle
  2
EdgeColorOff
 70
    22
 71
     2
 72
     2
 73
     0
 90
        0
 40
0.6
 41
30.0
 62
     5
 63
     7
 74
     1
 91
        4
 64
     7
 65
   257
 75
     1
175
     1
 42
1.0
 92
        8
 66
     7
 43
1.0
 76
     1
 77
     6
 78
     2
 67
     7
 79
     5
170
     0
171
     0
290
     0
174
     0
 93
        1
 44
0.0
173
     0
291
     1
 45
0.0
1001
ACAD
1000
AcDbSavedByObjectVersion
1070
     0
  0
VISUALSTYLE
  5
39
102
{ACAD_REACTORS
330
2A
102
}
102
{ACAD_XDICTIONARY
360
21F
102
}
330
2A
100
AcDbVisualStyle
  2
Facepattern
 70
    15
 71
     2
 72
     2
 73
     0
 90
        0
 40
0.6
 41
30.0
 62
     5
 63
     7
 74
     1
 91
        4
 64
     7
 65
   257
 75
     1
175
     1
 42
1.0
 92
        8
 66
     7
 43
1.0
 76
     1
 77
     6
 78
     2
 67
     7
 79
     5
170
     0
171
     0
290
     0
174
     0
 93
        1
 44
0.0
173
     0
291
     1
 45
0.0
1001
ACAD
1000
AcDbSavedByObjectVersion
1070
     0
  0
VISUALSTYLE
  5
2B
102
{ACAD_REACTORS
330
2A
102
}
102
{ACAD_XDICTIONARY
360
203
102
}
330
2A
100
AcDbVisualStyle
  2
Flat
 70
     0
 71
     2
 72
     1
 73
     1
 90
        2
 40
0.6
 41
30.0
 62
     5
 63
     7
 74
     0
 91
        0
 64
     7
 65
   257
 75
     1
175
     1
 42
1.0
 92
        8
 66
     7
 43
1.0
 76
     1
 77
     6
 78
     2
 67
     7
 79
     5
170
     0
171
     0
290
     0
174
     0
 93
       13
 44
0.0
173
     0
291
     1
 45
0.0
1001
ACAD
1000
AcDbSavedByObjectVersion
1070
     0
  0
VISUALSTYLE
  5
2C
102
{ACAD_REACTORS
330
2A
102
}
102
{ACAD_XDICTIONARY
360
205
102
}
330
2A
100
AcDbVisualStyle
  2
FlatWithEdges
 70
     1
 71
     2
 72
     1
 73
     1
 90
        2
 40
0.6
 41
30.0
 62
     5
 63
     7
 74
     1
 91
        0
 64
     7
 65
   257
 75
     1
175
     1
 42
1.0
 92
        0
 66
   257
 43
1.0
 76
     1
 77
     6
 78
     2
 67
     7
 79
     5
170
     0
171
     0
290
     0
174
     0
 93
       13
 44
0.0
173
     0
291
     1
 45
0.0
1001
ACAD
1000
AcDbSavedByObjectVersion
1070
     0
  0
VISUALSTYLE
  5
2D
102
{ACAD_REACTORS
330
2A
102
}
102
{ACAD_XDICTIONARY
360
207
102
}
330
2A
100
AcDbVisualStyle
  2
Gouraud
 70
     2
 71
     2
 72
     2
 73
     1
 90
        2
 40
0.6
 41
30.0
 62
     5
 63
     7
 74
     0
 91
        0
 64
     7
 65
   257
 75
     1
175
     1
 42
1.0
 92
        0
 66
     7
 43
1.0
 76
     1
 77
     6
 78
     2
 67
     7
 79
     5
170
     0
171
     0
290
     0
174
     0
 93
       13
 44
0.0
173
     0
291
     1
 45
0.0
1001
ACAD
1000
AcDbSavedByObjectVersion
1070
     0
  0
VISUALSTYLE
  5
2E
102
{ACAD_REACTORS
330
2A
102
}
102
{ACAD_XDICTIONARY
360
209
102
}
330
2A
100
AcDbVisualStyle
  2
GouraudWithEdges
 70
     3
 71
     2
 72
     2
 73
     1
 90
        2
 40
0.6
 41
30.0
 62
     5
 63
     7
 74
     1
 91
        0
 64
     7
 65
   257
 75
     1
175
     1
 42
1.0
 92
        0
 66
   257
 43
1.0
 76
     1
 77
     6
 78
     2
 67
     7
 79
     5
170
     0
171
     0
290
     0
174
     0
 93
       13
 44
0.0
173
     0
291
     1
 45
0.0
1001
ACAD
1000
AcDbSavedByObjectVersion
1070
     0
  0
VISUALSTYLE
  5
31
102
{ACAD_REACTORS
330
2A
102
}
102
{ACAD_XDICTIONARY
360
20F
102
}
330
2A
100
AcDbVisualStyle
  2
Hidden
 70
     6
 71
     1
 72
     2
 73
     2
 90
        0
 40
0.6
 41
30.0
 62
     5
 63
     7
 74
     2
 91
        2
 64
     7
 65
   257
 75
     2
175
     1
 42
40.0
 92
        0
 66
   257
 43
1.0
 76
     1
 77
     6
 78
     2
 67
     7
 79
     3
170
     0
171
     0
290
     0
174
     0
 93
        1
 44
0.0
173
     0
291
     0
 45
0.0
1001
ACAD
1000
AcDbSavedByObjectVersion
1070
     0
  0
VISUALSTYLE
  5
3B
102
{ACAD_REACTORS
330
2A
102
}
102
{ACAD_XDICTIONARY
360
223
102
}
330
2A
100
AcDbVisualStyle
  2
JitterOff
 70
    20
 71
     2
 72
     2
 73
     0
 90
        0
 40
0.6
 41
30.0
 62
     5
 63
     7
 74
     1
 91
        4
 64
     7
 65
   257
 75
     1
175
     1
 42
1.0
 92
       10
 66
     7
 43
1.0
 76
     1
 77
     6
 78
     2
 67
     7
 79
     5
170
     0
171
     0
290
     0
174
     0
 93
        1
 44
0.0
173
     0
291
     1
 45
0.0
1001
ACAD
1000
AcDbSavedByObjectVersion
1070
     0
  0
VISUALSTYLE
  5
38
102
{ACAD_REACTORS
330
2A
102
}
102
{ACAD_XDICTIONARY
360
21D
102
}
330
2A
100
AcDbVisualStyle
  2
Linepattern
 70
    14
 71
     2
 72
     2
 73
     0
 90
        0
 40
0.6
 41
30.0
 62
     5
 63
     7
 74
     1
 91
        4
 64
     7
 65
   257
 75
     7
175
     7
 42
1.0
 92
        8
 66
     7
 43
1.0
 76
     1
 77
     6
 78
     2
 67
     7
 79
     5
170
     0
171
     0
290
     0
174
     0
 93
        1
 44
0.0
173
     0
291
     1
 45
0.0
1001
ACAD
1000
AcDbSavedByObjectVersion
1070
     0
  0
VISUALSTYLE
  5
3C
102
{ACAD_REACTORS
330
2A
102
}
102
{ACAD_XDICTIONARY
360
225
102
}
330
2A
100
AcDbVisualStyle
  2
OverhangOff
 70
    21
 71
     2
 72
     2
 73
     0
 90
        0
 40
0.6
 41
30.0
 62
     5
 63
     7
 74
     1
 91
        4
 64
     7
 65
   257
 75
     1
175
     1
 42
1.0
 92
        9
 66
     7
 43
1.0
 76
     1
 77
     6
 78
     2
 67
     7
 79
     5
170
     0
171
     0
290
     0
174
     0
 93
        1
 44
0.0
173
     0
291
     1
 45
0.0
1001
ACAD
1000
AcDbSavedByObjectVersion
1070
     0
  0
VISUALSTYLE
  5
33
102
{ACAD_REACTORS
330
2A
102
}
102
{ACAD_XDICTIONARY
360
213
102
}
330
2A
100
AcDbVisualStyle
  2
Realistic
 70
     8
 71
     2
 72
     3
 73
     0
 90
        2
 40
0.6
 41
30.0
 62
     5
 63
     7
 74
     0
 91
        0
 64
     7
 65
   257
 75
     1
175
     1
 42
1.0
 92
        8
 66
   257
 43
1.0
 76
     1
 77
     6
 78
     2
 67
     7
 79
     3
170
     0
171
     0
290
     0
174
     0
 93
       13
 44
0.0
173
     0
291
     0
 45
0.0
1001
ACAD
1000
AcDbSavedByObjectVersion
1070
     0
  0
VISUALSTYLE
  5
42
102
{ACAD_REACTORS
330
2A
102
}
102
{ACAD_XDICTIONARY
360
231
102
}
330
2A
100
AcDbVisualStyle
  2
Shaded
 70
    27
 71
     2
 72
     2
 73
     1
 90
        2
 40
0.6
 41
30.0
 62
     5
 63
     7
 74
     0
 91
        4
 64
     7
 65
   257
 75
     1
175
     1
 42
1.0
 92
        8
 66
   257
 43
1.0
 76
     1
 77
     6
 78
     2
 67
     8
 79
     3
170
     0
171
     0
290
     0
174
     0
 93
        5
 44
0.0
173
     0
291
     0
 45
0.0
1001
ACAD
1000
AcDbSavedByObjectVersion
1070
     0
  0
VISUALSTYLE
  5
41
102
{ACAD_REACTORS
330
2A
102
}
102
{ACAD_XDICTIONARY
360
22F
102
}
330
2A
100
AcDbVisualStyle
  2
Shaded with edges
 70
    26
 71
     2
 72
     2
 73
     1
 90
        2
 40
0.6
 41
30.0
 62
     5
 63
     7
 74
     1
 91
       10
 64
     7
 65
   257
 75
     2
175
     1
 42
1.0
 92
        8
 66
   257
 43
1.0
 76
     1
 77
     6
 78
     2
 67
     7
 79
     3
170
     0
171
     0
290
     0
174
     0
 93
        5
 44
0.0
173
     0
291
     0
 45
0.0
1001
ACAD
1000
AcDbSavedByObjectVersion
1070
     0
  0
VISUALSTYLE
  5
3E
102
{ACAD_REACTORS
330
2A
102
}
102
{ACAD_XDICTIONARY
360
229
102
}
330
2A
100
AcDbVisualStyle
  2
Shades of Gray
 70
    23
 71
     2
 72
     2
 73
     3
 90
        0
 40
0.6
 41
30.0
 62
     5
 63
     7
 74
     2
 91
        2
 64
     7
 65
     7
 75
     1
175
     1
 42
40.0
 92
        8
 66
     7
 43
1.0
 76
     1
 77
     6
 78
     2
 67
     7
 79
     3
170
     0
171
     0
290
     0
174
     0
 93
        1
 44
0.0
173
     0
291
     0
 45
0.0
1001
ACAD
1000
AcDbSavedByObjectVersion
1070
     0
  0
VISUALSTYLE
  5
3F
102
{ACAD_REACTORS
330
2A
102
}
102
{ACAD_XDICTIONARY
360
22B
102
}
330
2A
100
AcDbVisualStyle
  2
Sketchy
 70
    24
 71
     1
 72
     2
 73
     2
 90
        0
 40
0.6
 41
30.0
 62
     5
 63
     7
 74
     2
 91
        2
 64
     7
 65
     7
 75
     1
175
     1
 42
40.0
 92
       11
 66
     7
 43
1.0
 76
     1
 77
     6
 78
     2
 67
     7
 79
     6
170
     0
171
     0
290
     0
174
     0
 93
        1
 44
0.0
173
     0
291
     0
 45
0.0
1001
ACAD
1000
AcDbSavedByObjectVersion
1070
     0
  0
VISUALSTYLE
  5
37
102
{ACAD_REACTORS
330
2A
102
}
102
{ACAD_XDICTIONARY
360
21B
102
}
330
2A
100
AcDbVisualStyle
  2
Thicken
 70
    13
 71
     2
 72
     2
 73
     0
 90
        0
 40
0.6
 41
30.0
 62
     5
 63
     7
 74
     1
 91
        4
 64
     7
 65
   257
 75
     1
175
     1
 42
1.0
 92
       12
 66
     7
 43
1.0
 76
     1
 77
     6
 78
     2
 67
     7
 79
     5
170
     0
171
     0
290
     0
174
     0
 93
        1
 44
0.0
173
     0
291
     1
 45
0.0
1001
ACAD
1000
AcDbSavedByObjectVersion
1070
     0
  0
VISUALSTYLE
  5
30
102
{ACAD_REACTORS
330
2A
102
}
102
{ACAD_XDICTIONARY
360
20D
102
}
330
2A
100
AcDbVisualStyle
  2
Wireframe
 70
     5
 71
     0
 72
     2
 73
     0
 90
        0
 40
0.6
 41
30.0
 62
     5
 63
     7
 74
     1
 91
        4
 64
     7
 65
   257
 75
     1
175
     1
 42
1.0
 92
        0
 66
   257
 43
1.0
 76
     1
 77
     6
 78
     2
 67
     7
 79
     3
170
     0
171
     0
290
     0
174
     0
 93
        1
 44
0.0
173
     0
291
     0
 45
0.0
1001
ACAD
1000
AcDbSavedByObjectVersion
1070
     0
  0
VISUALSTYLE
  5
40
102
{ACAD_REACTORS
330
2A
102
}
102
{ACAD_XDICTIONARY
360
22D
102
}
330
2A
100
AcDbVisualStyle
  2
X-Ray
 70
    25
 71
     2
 72
     2
 73
     1
 90
        1
 40
0.5
 41
30.0
 62
     5
 63
     7
 74
     1
 91
        0
 64
     7
 65
   257
 75
     1
175
     1
 42
1.0
 92
        8
 66
     7
 43
1.0
 76
     1
 77
     6
 78
     2
 67
     7
 79
     3
170
     0
171
     0
290
     0
174
     0
 93
       13
 44
0.0
173
     0
291
     0
 45
0.0
1001
ACAD
1000
AcDbSavedByObjectVersion
1070
     0
  0
DICTIONARYVAR
  5
201
102
{ACAD_REACTORS
330
1FA
102
}
330
1FA
100
DictionaryVariables
280
     0
  1
1:1
  0
DICTIONARYVAR
  5
1FF
102
{ACAD_REACTORS
330
1FA
102
}
330
1FA
100
DictionaryVariables
280
     0
  1
2
  0
DICTIONARYVAR
  5
200
102
{ACAD_REACTORS
330
1FA
102
}
330
1FA
100
DictionaryVariables
280
     0
  1
1
  0
DICTIONARYVAR
  5
202
102
{ACAD_REACTORS
330
1FA
102
}
330
1FA
100
DictionaryVariables
280
     0
  1
1
  0
DICTIONARY
  5
235
330
45
100
AcDbDictionary
280
     1
281
     1
  3
ACAD_XREC_ROUNDTRIP
360
236
  0
DICTIONARY
  5
233
330
44
100
AcDbDictionary
280
     1
281
     1
  3
ACAD_XREC_ROUNDTRIP
360
234
  0
DICTIONARY
  5
237
330
46
100
AcDbDictionary
280
     1
281
     1
  3
ACAD_XREC_ROUNDTRIP
360
238
  0
DICTIONARY
  5
20B
330
2F
100
AcDbDictionary
280
     1
281
     1
  3
ACAD_XREC_ROUNDTRIP
360
20C
  0
DICTIONARY
  5
211
330
32
100
AcDbDictionary
280
     1
281
     1
  3
ACAD_XREC_ROUNDTRIP
360
212
  0
DICTIONARY
  5
219
330
36
100
AcDbDictionary
280
     1
281
     1
  3
ACAD_XREC_ROUNDTRIP
360
21A
  0
DICTIONARY
  5
221
330
3A
100
AcDbDictionary
280
     1
281
     1
  3
ACAD_XREC_ROUNDTRIP
360
222
  0
DICTIONARY
  5
215
330
34
100
AcDbDictionary
280
     1
281
     1
  3
ACAD_XREC_ROUNDTRIP
360
216
  0
DICTIONARY
  5
217
330
35
100
AcDbDictionary
280
     1
281
     1
  3
ACAD_XREC_ROUNDTRIP
360
218
  0
DICTIONARY
  5
227
330
3D
100
AcDbDictionary
280
     1
281
     1
  3
ACAD_XREC_ROUNDTRIP
360
228
  0
DICTIONARY
  5
21F
330
39
100
AcDbDictionary
280
     1
281
     1
  3
ACAD_XREC_ROUNDTRIP
360
220
  0
DICTIONARY
  5
203
330
2B
100
AcDbDictionary
280
     1
281
     1
  3
ACAD_XREC_ROUNDTRIP
360
204
  0
DICTIONARY
  5
205
330
2C
100
AcDbDictionary
280
     1
281
     1
  3
ACAD_XREC_ROUNDTRIP
360
206
  0
DICTIONARY
  5
207
330
2D
100
AcDbDictionary
280
     1
281
     1
  3
ACAD_XREC_ROUNDTRIP
360
208
  0
DICTIONARY
  5
209
330
2E
100
AcDbDictionary
280
     1
281
     1
  3
ACAD_XREC_ROUNDTRIP
360
20A
  0
DICTIONARY
  5
20F
330
31
100
AcDbDictionary
280
     1
281
     1
  3
ACAD_XREC_ROUNDTRIP
360
210
  0
DICTIONARY
  5
223
330
3B
100
AcDbDictionary
280
     1
281
     1
  3
ACAD_XREC_ROUNDTRIP
360
224
  0
DICTIONARY
  5
21D
330
38
100
AcDbDictionary
280
     1
281
     1
  3
ACAD_XREC_ROUNDTRIP
360
21E
  0
DICTIONARY
  5
225
330
3C
100
AcDbDictionary
280
     1
281
     1
  3
ACAD_XREC_ROUNDTRIP
360
226
  0
DICTIONARY
  5
213
330
33
100
AcDbDictionary
280
     1
281
     1
  3
ACAD_XREC_ROUNDTRIP
360
214
  0
DICTIONARY
  5
231
330
42
100
AcDbDictionary
280
     1
281
     1
  3
ACAD_XREC_ROUNDTRIP
360
232
  0
DICTIONARY
  5
22F
330
41
100
AcDbDictionary
280
     1
281
     1
  3
ACAD_XREC_ROUNDTRIP
360
230
  0
DICTIONARY
  5
229
330
3E
100
AcDbDictionary
280
     1
281
     1
  3
ACAD_XREC_ROUNDTRIP
360
22A
  0
DICTIONARY
  5
22B
330
3F
100
AcDbDictionary
280
     1
281
     1
  3
ACAD_XREC_ROUNDTRIP
360
22C
  0
DICTIONARY
  5
21B
330
37
100
AcDbDictionary
280
     1
281
     1
  3
ACAD_XREC_ROUNDTRIP
360
21C
  0
DICTIONARY
  5
20D
330
30
100
AcDbDictionary
280
     1
281
     1
  3
ACAD_XREC_ROUNDTRIP
360
20E
  0
DICTIONARY
  5
22D
330
40
100
AcDbDictionary
280
     1
281
     1
  3
ACAD_XREC_ROUNDTRIP
360
22E
  0
XRECORD
  5
236
102
{ACAD_REACTORS
330
235
102
}
330
235
100
AcDbXrecord
280
     1
102
MATERIAL
148
0.0
149
0.0
149
0.0
 93
        0
 94
      127
282
     0
 72
     1
 77
     1
171
     1
175
     1
179
     1
273
     0
  0
XRECORD
  5
234
102
{ACAD_REACTORS
330
233
102
}
330
233
100
AcDbXrecord
280
     1
102
MATERIAL
148
0.0
149
0.0
149
0.0
 93
        0
 94
      127
282
     0
 72
     1
 77
     1
171
     1
175
     1
179
     1
273
     0
  0
XRECORD
  5
238
102
{ACAD_REACTORS
330
237
102
}
330
237
100
AcDbXrecord
280
     1
102
MATERIAL
148
0.0
149
0.0
149
0.0
 93
        0
 94
      127
282
     0
 72
     1
 77
     1
171
     1
175
     1
179
     1
273
     0
  0
XRECORD
  5
20C
102
{ACAD_REACTORS
330
20B
102
}
330
20B
100
AcDbXrecord
280
     1
102
RTVSPropertyOp0
 70
     1
102
RTVSPropertyOp1
 70
     1
102
RTVSPropertyOp2
 70
     1
102
RTVSPropertyOp3
 70
     1
102
RTVSPropertyOp4
 70
     1
102
RTVSPropertyOp5
 70
     1
102
RTVSPropertyOp6
 70
     1
102
RTVSPropertyOp7
 70
     1
102
RTVSPropertyOp8
 70
     1
102
RTVSPropertyOp9
 70
     1
102
RTVSPropertyOp10
 70
     1
102
RTVSPropertyOp11
 70
     1
102
RTVSPropertyOp12
 70
     1
102
RTVSPropertyOp13
 70
     1
102
RTVSPropertyOp14
 70
     1
102
RTVSPropertyOp15
 70
     1
102
RTVSPropertyOp16
 70
     1
102
RTVSPropertyOp17
 70
     1
102
RTVSPropertyOp18
 70
     1
102
RTVSPropertyOp19
 70
     1
102
RTVSPropertyOp20
 70
     1
102
RTVSPropertyOp21
 70
     1
102
RTVSPropertyOp22
 70
     1
102
RTVSPropertyOp23
 70
     1
102
RTVSPropertyOp24
 70
     1
102
RTVSPropertyOp25
 70
     1
102
RTVSPropertyOp26
 70
     1
102
RTVSPropertyOp27
 70
     1
102
RTVSPropertyOp28
 70
     1
102
RTVSPropertyOp29
 70
     1
102
RTVSPropertyOp30
 70
     1
102
RTVSPropertyOp31
 70
     1
102
RTVSPropertyOp32
 70
     1
102
RTVSPropertyOp33
 70
     1
102
RTVSPropertyOp34
 70
     1
102
RTVSPropertyOp35
 70
     1
102
RTVSPropertyOp36
 70
     1
102
RTVSPropertyOp37
 70
     1
102
RTVSPropertyOp38
 70
     1
102
RTVSPropertyOp39
 70
     1
102
RTVSPropertyOp40
 70
     1
102
RTVSPropertyOp41
 70
     1
102
RTVSPropertyOp42
 70
     1
102
RTVSPropertyOp43
 70
     1
102
RTVSPropertyOp44
 70
     1
102
RTVSPropertyOp45
 70
     1
102
RTVSPropertyOp46
 70
     1
102
RTVSPropertyOp47
 70
     1
102
RTVSPropertyOp48
 70
     1
102
RTVSPropertyOp49
 70
     1
102
RTVSPropertyOp50
 70
     1
102
RTVSPropertyOp51
 70
     0
102
RTVSPropertyOp52
 70
     0
102
RTVSPropertyOp53
 70
     1
102
RTVSPropertyOp54
 70
     1
102
RTVSPropertyOp55
 70
     1
102
RTVSPropertyOp56
 70
     1
102
RTVSPropertyOp57
 70
     1
102
RTVSPost2010Prop28
280
     1
102
RTVSPost2010PropOp28
 70
     1
102
RTVSPost2010Prop29
280
     1
102
RTVSPost2010PropOp29
 70
     1
102
RTVSPost2010Prop30
280
     0
102
RTVSPost2010PropOp30
 70
     1
102
RTVSPost2010Prop31
280
     0
102
RTVSPost2010PropOp31
 70
     1
102
RTVSPost2010Prop32
280
     0
102
RTVSPost2010PropOp32
 70
     1
102
RTVSPost2010Prop33
280
     0
102
RTVSPost2010PropOp33
 70
     1
102
RTVSPost2010Prop34
280
     0
102
RTVSPost2010PropOp34
 70
     1
102
RTVSPost2010Prop35
280
     0
102
RTVSPost2010PropOp35
 70
     1
102
RTVSPost2010Prop36
280
     0
102
RTVSPost2010PropOp36
 70
     1
102
RTVSPost2010Prop37
 90
       50
102
RTVSPost2010PropOp37
 70
     1
102
RTVSPost2010Prop38
140
0.0
102
RTVSPost2010PropOp38
 70
     1
102
RTVSPost2010Prop39
140
1.0
102
RTVSPost2010PropOp39
 70
     1
102
RTVSPost2010Prop40
 90
        0
102
RTVSPost2010PropOp40
 70
     1
102
RTVSPost2010Prop41ColorIndex
 90
       18
102
RTVSPost2010Prop41ColorRGB
 90
        0
102
RTVSPost2010PropOp41
 70
     1
102
RTVSPost2010Prop42
 90
       50
102
RTVSPost2010PropOp42
 70
     1
102
RTVSPost2010Prop43
 90
        3
102
RTVSPost2010PropOp43
 70
     1
102
RTVSPost2010Prop44ColorIndex
 90
        5
102
RTVSPost2010Prop44ColorRGB
 90
      255
102
RTVSPost2010PropOp44
 70
     1
102
RTVSPost2010Prop45
280
     0
102
RTVSPost2010PropOp45
 70
     1
102
RTVSPost2010Prop46
 90
       50
102
RTVSPost2010PropOp46
 70
     1
102
RTVSPost2010Prop47
 90
       50
102
RTVSPost2010PropOp47
 70
     1
102
RTVSPost2010Prop48
 90
       50
102
RTVSPost2010PropOp48
 70
     1
102
RTVSPost2010Prop49
280
     0
102
RTVSPost2010PropOp49
 70
     1
102
RTVSPost2010Prop50
 90
       50
102
RTVSPost2010PropOp50
 70
     1
102
RTVSPost2010Prop51ColorIndex
 90
      256
102
RTVSPost2010Prop51ColorRGB
 90
-16777216
102
RTVSPost2010PropOp51
 70
     0
102
RTVSPost2010Prop52
140
1.0
102
RTVSPost2010PropOp52
 70
     0
102
RTVSPost2010Prop53
 90
        2
102
RTVSPost2010PropOp53
 70
     1
102
RTVSPost2010Prop54
  1
strokes_ogs.tif
102
RTVSPost2010PropOp54
 70
     1
102
RTVSPost2010Prop55
280
     0
102
RTVSPost2010PropOp55
 70
     1
102
RTVSPost2010Prop56
140
1.0
102
RTVSPost2010PropOp56
 70
     1
102
RTVSPost2010Prop57
140
1.0
102
RTVSPost2010PropOp57
 70
     1
  0
XRECORD
  5
212
102
{ACAD_REACTORS
330
211
102
}
330
211
100
AcDbXrecord
280
     1
102
RTVSPropertyOp0
 70
     1
102
RTVSPropertyOp1
 70
     1
102
RTVSPropertyOp2
 70
     1
102
RTVSPropertyOp3
 70
     1
102
RTVSPropertyOp4
 70
     1
102
RTVSPropertyOp5
 70
     1
102
RTVSPropertyOp6
 70
     1
102
RTVSPropertyOp7
 70
     1
102
RTVSPropertyOp8
 70
     1
102
RTVSPropertyOp9
 70
     1
102
RTVSPropertyOp10
 70
     1
102
RTVSPropertyOp11
 70
     1
102
RTVSPropertyOp12
 70
     1
102
RTVSPropertyOp13
 70
     1
102
RTVSPropertyOp14
 70
     1
102
RTVSPropertyOp15
 70
     1
102
RTVSPropertyOp16
 70
     1
102
RTVSPropertyOp17
 70
     1
102
RTVSPropertyOp18
 70
     1
102
RTVSPropertyOp19
 70
     1
102
RTVSPropertyOp20
 70
     1
102
RTVSPropertyOp21
 70
     1
102
RTVSPropertyOp22
 70
     1
102
RTVSPropertyOp23
 70
     1
102
RTVSPropertyOp24
 70
     1
102
RTVSPropertyOp25
 70
     1
102
RTVSPropertyOp26
 70
     1
102
RTVSPropertyOp27
 70
     1
102
RTVSPropertyOp28
 70
     1
102
RTVSPropertyOp29
 70
     1
102
RTVSPropertyOp30
 70
     1
102
RTVSPropertyOp31
 70
     1
102
RTVSPropertyOp32
 70
     1
102
RTVSPropertyOp33
 70
     1
102
RTVSPropertyOp34
 70
     1
102
RTVSPropertyOp35
 70
     1
102
RTVSPropertyOp36
 70
     1
102
RTVSPropertyOp37
 70
     1
102
RTVSPropertyOp38
 70
     1
102
RTVSPropertyOp39
 70
     1
102
RTVSPropertyOp40
 70
     1
102
RTVSPropertyOp41
 70
     1
102
RTVSPropertyOp42
 70
     1
102
RTVSPropertyOp43
 70
     1
102
RTVSPropertyOp44
 70
     1
102
RTVSPropertyOp45
 70
     1
102
RTVSPropertyOp46
 70
     1
102
RTVSPropertyOp47
 70
     1
102
RTVSPropertyOp48
 70
     1
102
RTVSPropertyOp49
 70
     1
102
RTVSPropertyOp50
 70
     1
102
RTVSPropertyOp51
 70
     0
102
RTVSPropertyOp52
 70
     0
102
RTVSPropertyOp53
 70
     1
102
RTVSPropertyOp54
 70
     1
102
RTVSPropertyOp55
 70
     1
102
RTVSPropertyOp56
 70
     1
102
RTVSPropertyOp57
 70
     1
102
RTVSPost2010Prop28
280
     0
102
RTVSPost2010PropOp28
 70
     1
102
RTVSPost2010Prop29
280
     1
102
RTVSPost2010PropOp29
 70
     1
102
RTVSPost2010Prop30
280
     1
102
RTVSPost2010PropOp30
 70
     1
102
RTVSPost2010Prop31
280
     0
102
RTVSPost2010PropOp31
 70
     1
102
RTVSPost2010Prop32
280
     0
102
RTVSPost2010PropOp32
 70
     1
102
RTVSPost2010Prop33
280
     0
102
RTVSPost2010PropOp33
 70
     1
102
RTVSPost2010Prop34
280
     0
102
RTVSPost2010PropOp34
 70
     1
102
RTVSPost2010Prop35
280
     0
102
RTVSPost2010PropOp35
 70
     1
102
RTVSPost2010Prop36
280
     0
102
RTVSPost2010PropOp36
 70
     1
102
RTVSPost2010Prop37
 90
       50
102
RTVSPost2010PropOp37
 70
     1
102
RTVSPost2010Prop38
140
0.0
102
RTVSPost2010PropOp38
 70
     1
102
RTVSPost2010Prop39
140
1.0
102
RTVSPost2010PropOp39
 70
     1
102
RTVSPost2010Prop40
 90
        0
102
RTVSPost2010PropOp40
 70
     1
102
RTVSPost2010Prop41ColorIndex
 90
       18
102
RTVSPost2010Prop41ColorRGB
 90
        0
102
RTVSPost2010PropOp41
 70
     1
102
RTVSPost2010Prop42
 90
       50
102
RTVSPost2010PropOp42
 70
     1
102
RTVSPost2010Prop43
 90
        3
102
RTVSPost2010PropOp43
 70
     1
102
RTVSPost2010Prop44ColorIndex
 90
        5
102
RTVSPost2010Prop44ColorRGB
 90
      255
102
RTVSPost2010PropOp44
 70
     1
102
RTVSPost2010Prop45
280
     0
102
RTVSPost2010PropOp45
 70
     1
102
RTVSPost2010Prop46
 90
       50
102
RTVSPost2010PropOp46
 70
     1
102
RTVSPost2010Prop47
 90
       50
102
RTVSPost2010PropOp47
 70
     1
102
RTVSPost2010Prop48
 90
       50
102
RTVSPost2010PropOp48
 70
     1
102
RTVSPost2010Prop49
280
     0
102
RTVSPost2010PropOp49
 70
     1
102
RTVSPost2010Prop50
 90
       50
102
RTVSPost2010PropOp50
 70
     1
102
RTVSPost2010Prop51ColorIndex
 90
      256
102
RTVSPost2010Prop51ColorRGB
 90
-16777216
102
RTVSPost2010PropOp51
 70
     0
102
RTVSPost2010Prop52
140
1.0
102
RTVSPost2010PropOp52
 70
     0
102
RTVSPost2010Prop53
 90
        2
102
RTVSPost2010PropOp53
 70
     1
102
RTVSPost2010Prop54
  1
strokes_ogs.tif
102
RTVSPost2010PropOp54
 70
     1
102
RTVSPost2010Prop55
280
     0
102
RTVSPost2010PropOp55
 70
     1
102
RTVSPost2010Prop56
140
1.0
102
RTVSPost2010PropOp56
 70
     1
102
RTVSPost2010Prop57
140
1.0
102
RTVSPost2010PropOp57
 70
     1
  0
XRECORD
  5
21A
102
{ACAD_REACTORS
330
219
102
}
330
219
100
AcDbXrecord
280
     1
102
RTVSPropertyOp0
 70
     1
102
RTVSPropertyOp1
 70
     1
102
RTVSPropertyOp2
 70
     1
102
RTVSPropertyOp3
 70
     1
102
RTVSPropertyOp4
 70
     1
102
RTVSPropertyOp5
 70
     1
102
RTVSPropertyOp6
 70
     1
102
RTVSPropertyOp7
 70
     1
102
RTVSPropertyOp8
 70
     1
102
RTVSPropertyOp9
 70
     1
102
RTVSPropertyOp10
 70
     1
102
RTVSPropertyOp11
 70
     1
102
RTVSPropertyOp12
 70
     1
102
RTVSPropertyOp13
 70
     1
102
RTVSPropertyOp14
 70
     1
102
RTVSPropertyOp15
 70
     1
102
RTVSPropertyOp16
 70
     1
102
RTVSPropertyOp17
 70
     1
102
RTVSPropertyOp18
 70
     1
102
RTVSPropertyOp19
 70
     1
102
RTVSPropertyOp20
 70
     1
102
RTVSPropertyOp21
 70
     1
102
RTVSPropertyOp22
 70
     1
102
RTVSPropertyOp23
 70
     1
102
RTVSPropertyOp24
 70
     1
102
RTVSPropertyOp25
 70
     1
102
RTVSPropertyOp26
 70
     1
102
RTVSPropertyOp27
 70
     1
102
RTVSPropertyOp28
 70
     1
102
RTVSPropertyOp29
 70
     1
102
RTVSPropertyOp30
 70
     1
102
RTVSPropertyOp31
 70
     1
102
RTVSPropertyOp32
 70
     1
102
RTVSPropertyOp33
 70
     1
102
RTVSPropertyOp34
 70
     1
102
RTVSPropertyOp35
 70
     1
102
RTVSPropertyOp36
 70
     1
102
RTVSPropertyOp37
 70
     1
102
RTVSPropertyOp38
 70
     1
102
RTVSPropertyOp39
 70
     1
102
RTVSPropertyOp40
 70
     1
102
RTVSPropertyOp41
 70
     1
102
RTVSPropertyOp42
 70
     1
102
RTVSPropertyOp43
 70
     1
102
RTVSPropertyOp44
 70
     1
102
RTVSPropertyOp45
 70
     1
102
RTVSPropertyOp46
 70
     1
102
RTVSPropertyOp47
 70
     1
102
RTVSPropertyOp48
 70
     1
102
RTVSPropertyOp49
 70
     1
102
RTVSPropertyOp50
 70
     1
102
RTVSPropertyOp51
 70
     0
102
RTVSPropertyOp52
 70
     0
102
RTVSPropertyOp53
 70
     1
102
RTVSPropertyOp54
 70
     1
102
RTVSPropertyOp55
 70
     1
102
RTVSPropertyOp56
 70
     1
102
RTVSPropertyOp57
 70
     1
102
RTVSPost2010Prop28
280
     0
102
RTVSPost2010PropOp28
 70
     1
102
RTVSPost2010Prop29
280
     1
102
RTVSPost2010PropOp29
 70
     1
102
RTVSPost2010Prop30
280
     1
102
RTVSPost2010PropOp30
 70
     1
102
RTVSPost2010Prop31
280
     0
102
RTVSPost2010PropOp31
 70
     1
102
RTVSPost2010Prop32
280
     0
102
RTVSPost2010PropOp32
 70
     1
102
RTVSPost2010Prop33
280
     0
102
RTVSPost2010PropOp33
 70
     1
102
RTVSPost2010Prop34
280
     0
102
RTVSPost2010PropOp34
 70
     1
102
RTVSPost2010Prop35
280
     0
102
RTVSPost2010PropOp35
 70
     1
102
RTVSPost2010Prop36
280
     0
102
RTVSPost2010PropOp36
 70
     1
102
RTVSPost2010Prop37
 90
       50
102
RTVSPost2010PropOp37
 70
     1
102
RTVSPost2010Prop38
140
0.0
102
RTVSPost2010PropOp38
 70
     1
102
RTVSPost2010Prop39
140
1.0
102
RTVSPost2010PropOp39
 70
     1
102
RTVSPost2010Prop40
 90
        0
102
RTVSPost2010PropOp40
 70
     1
102
RTVSPost2010Prop41ColorIndex
 90
       18
102
RTVSPost2010Prop41ColorRGB
 90
        0
102
RTVSPost2010PropOp41
 70
     1
102
RTVSPost2010Prop42
 90
       50
102
RTVSPost2010PropOp42
 70
     1
102
RTVSPost2010Prop43
 90
        3
102
RTVSPost2010PropOp43
 70
     1
102
RTVSPost2010Prop44ColorIndex
 90
        5
102
RTVSPost2010Prop44ColorRGB
 90
      255
102
RTVSPost2010PropOp44
 70
     1
102
RTVSPost2010Prop45
280
     0
102
RTVSPost2010PropOp45
 70
     1
102
RTVSPost2010Prop46
 90
       50
102
RTVSPost2010PropOp46
 70
     1
102
RTVSPost2010Prop47
 90
       50
102
RTVSPost2010PropOp47
 70
     1
102
RTVSPost2010Prop48
 90
       50
102
RTVSPost2010PropOp48
 70
     1
102
RTVSPost2010Prop49
280
     0
102
RTVSPost2010PropOp49
 70
     1
102
RTVSPost2010Prop50
 90
       50
102
RTVSPost2010PropOp50
 70
     1
102
RTVSPost2010Prop51ColorIndex
 90
      256
102
RTVSPost2010Prop51ColorRGB
 90
-16777216
102
RTVSPost2010PropOp51
 70
     0
102
RTVSPost2010Prop52
140
1.0
102
RTVSPost2010PropOp52
 70
     0
102
RTVSPost2010Prop53
 90
        2
102
RTVSPost2010PropOp53
 70
     1
102
RTVSPost2010Prop54
  1
strokes_ogs.tif
102
RTVSPost2010PropOp54
 70
     1
102
RTVSPost2010Prop55
280
     0
102
RTVSPost2010PropOp55
 70
     1
102
RTVSPost2010Prop56
140
1.0
102
RTVSPost2010PropOp56
 70
     1
102
RTVSPost2010Prop57
140
1.0
102
RTVSPost2010PropOp57
 70
     1
  0
XRECORD
  5
222
102
{ACAD_REACTORS
330
221
102
}
330
221
100
AcDbXrecord
280
     1
102
RTVSPropertyOp0
 70
     1
102
RTVSPropertyOp1
 70
     1
102
RTVSPropertyOp2
 70
     1
102
RTVSPropertyOp3
 70
     1
102
RTVSPropertyOp4
 70
     1
102
RTVSPropertyOp5
 70
     1
102
RTVSPropertyOp6
 70
     1
102
RTVSPropertyOp7
 70
     1
102
RTVSPropertyOp8
 70
     1
102
RTVSPropertyOp9
 70
     1
102
RTVSPropertyOp10
 70
     1
102
RTVSPropertyOp11
 70
     1
102
RTVSPropertyOp12
 70
     1
102
RTVSPropertyOp13
 70
     1
102
RTVSPropertyOp14
 70
     1
102
RTVSPropertyOp15
 70
     1
102
RTVSPropertyOp16
 70
     1
102
RTVSPropertyOp17
 70
     1
102
RTVSPropertyOp18
 70
     1
102
RTVSPropertyOp19
 70
     1
102
RTVSPropertyOp20
 70
     1
102
RTVSPropertyOp21
 70
     1
102
RTVSPropertyOp22
 70
     1
102
RTVSPropertyOp23
 70
     1
102
RTVSPropertyOp24
 70
     1
102
RTVSPropertyOp25
 70
     1
102
RTVSPropertyOp26
 70
     1
102
RTVSPropertyOp27
 70
     1
102
RTVSPropertyOp28
 70
     1
102
RTVSPropertyOp29
 70
     1
102
RTVSPropertyOp30
 70
     1
102
RTVSPropertyOp31
 70
     1
102
RTVSPropertyOp32
 70
     1
102
RTVSPropertyOp33
 70
     1
102
RTVSPropertyOp34
 70
     1
102
RTVSPropertyOp35
 70
     1
102
RTVSPropertyOp36
 70
     1
102
RTVSPropertyOp37
 70
     1
102
RTVSPropertyOp38
 70
     1
102
RTVSPropertyOp39
 70
     1
102
RTVSPropertyOp40
 70
     1
102
RTVSPropertyOp41
 70
     1
102
RTVSPropertyOp42
 70
     1
102
RTVSPropertyOp43
 70
     1
102
RTVSPropertyOp44
 70
     1
102
RTVSPropertyOp45
 70
     1
102
RTVSPropertyOp46
 70
     1
102
RTVSPropertyOp47
 70
     1
102
RTVSPropertyOp48
 70
     1
102
RTVSPropertyOp49
 70
     1
102
RTVSPropertyOp50
 70
     1
102
RTVSPropertyOp51
 70
     0
102
RTVSPropertyOp52
 70
     0
102
RTVSPropertyOp53
 70
     1
102
RTVSPropertyOp54
 70
     1
102
RTVSPropertyOp55
 70
     1
102
RTVSPropertyOp56
 70
     1
102
RTVSPropertyOp57
 70
     1
102
RTVSPost2010Prop28
280
     0
102
RTVSPost2010PropOp28
 70
     1
102
RTVSPost2010Prop29
280
     1
102
RTVSPost2010PropOp29
 70
     1
102
RTVSPost2010Prop30
280
     1
102
RTVSPost2010PropOp30
 70
     1
102
RTVSPost2010Prop31
280
     0
102
RTVSPost2010PropOp31
 70
     1
102
RTVSPost2010Prop32
280
     0
102
RTVSPost2010PropOp32
 70
     1
102
RTVSPost2010Prop33
280
     0
102
RTVSPost2010PropOp33
 70
     1
102
RTVSPost2010Prop34
280
     0
102
RTVSPost2010PropOp34
 70
     1
102
RTVSPost2010Prop35
280
     0
102
RTVSPost2010PropOp35
 70
     1
102
RTVSPost2010Prop36
280
     0
102
RTVSPost2010PropOp36
 70
     1
102
RTVSPost2010Prop37
 90
       50
102
RTVSPost2010PropOp37
 70
     1
102
RTVSPost2010Prop38
140
0.0
102
RTVSPost2010PropOp38
 70
     1
102
RTVSPost2010Prop39
140
1.0
102
RTVSPost2010PropOp39
 70
     1
102
RTVSPost2010Prop40
 90
        0
102
RTVSPost2010PropOp40
 70
     1
102
RTVSPost2010Prop41ColorIndex
 90
       18
102
RTVSPost2010Prop41ColorRGB
 90
        0
102
RTVSPost2010PropOp41
 70
     1
102
RTVSPost2010Prop42
 90
       50
102
RTVSPost2010PropOp42
 70
     1
102
RTVSPost2010Prop43
 90
        3
102
RTVSPost2010PropOp43
 70
     1
102
RTVSPost2010Prop44ColorIndex
 90
        5
102
RTVSPost2010Prop44ColorRGB
 90
      255
102
RTVSPost2010PropOp44
 70
     1
102
RTVSPost2010Prop45
280
     0
102
RTVSPost2010PropOp45
 70
     1
102
RTVSPost2010Prop46
 90
       50
102
RTVSPost2010PropOp46
 70
     1
102
RTVSPost2010Prop47
 90
       50
102
RTVSPost2010PropOp47
 70
     1
102
RTVSPost2010Prop48
 90
       50
102
RTVSPost2010PropOp48
 70
     1
102
RTVSPost2010Prop49
280
     0
102
RTVSPost2010PropOp49
 70
     1
102
RTVSPost2010Prop50
 90
       50
102
RTVSPost2010PropOp50
 70
     1
102
RTVSPost2010Prop51ColorIndex
 90
      256
102
RTVSPost2010Prop51ColorRGB
 90
-16777216
102
RTVSPost2010PropOp51
 70
     0
102
RTVSPost2010Prop52
140
1.0
102
RTVSPost2010PropOp52
 70
     0
102
RTVSPost2010Prop53
 90
        2
102
RTVSPost2010PropOp53
 70
     1
102
RTVSPost2010Prop54
  1
strokes_ogs.tif
102
RTVSPost2010PropOp54
 70
     1
102
RTVSPost2010Prop55
280
     0
102
RTVSPost2010PropOp55
 70
     1
102
RTVSPost2010Prop56
140
1.0
102
RTVSPost2010PropOp56
 70
     1
102
RTVSPost2010Prop57
140
1.0
102
RTVSPost2010PropOp57
 70
     1
  0
XRECORD
  5
216
102
{ACAD_REACTORS
330
215
102
}
330
215
100
AcDbXrecord
280
     1
102
RTVSPropertyOp0
 70
     1
102
RTVSPropertyOp1
 70
     1
102
RTVSPropertyOp2
 70
     1
102
RTVSPropertyOp3
 70
     1
102
RTVSPropertyOp4
 70
     1
102
RTVSPropertyOp5
 70
     1
102
RTVSPropertyOp6
 70
     1
102
RTVSPropertyOp7
 70
     1
102
RTVSPropertyOp8
 70
     1
102
RTVSPropertyOp9
 70
     1
102
RTVSPropertyOp10
 70
     1
102
RTVSPropertyOp11
 70
     1
102
RTVSPropertyOp12
 70
     1
102
RTVSPropertyOp13
 70
     1
102
RTVSPropertyOp14
 70
     1
102
RTVSPropertyOp15
 70
     1
102
RTVSPropertyOp16
 70
     1
102
RTVSPropertyOp17
 70
     1
102
RTVSPropertyOp18
 70
     1
102
RTVSPropertyOp19
 70
     1
102
RTVSPropertyOp20
 70
     1
102
RTVSPropertyOp21
 70
     1
102
RTVSPropertyOp22
 70
     1
102
RTVSPropertyOp23
 70
     1
102
RTVSPropertyOp24
 70
     1
102
RTVSPropertyOp25
 70
     1
102
RTVSPropertyOp26
 70
     1
102
RTVSPropertyOp27
 70
     1
102
RTVSPropertyOp28
 70
     1
102
RTVSPropertyOp29
 70
     1
102
RTVSPropertyOp30
 70
     1
102
RTVSPropertyOp31
 70
     1
102
RTVSPropertyOp32
 70
     1
102
RTVSPropertyOp33
 70
     1
102
RTVSPropertyOp34
 70
     1
102
RTVSPropertyOp35
 70
     1
102
RTVSPropertyOp36
 70
     1
102
RTVSPropertyOp37
 70
     1
102
RTVSPropertyOp38
 70
     1
102
RTVSPropertyOp39
 70
     1
102
RTVSPropertyOp40
 70
     1
102
RTVSPropertyOp41
 70
     1
102
RTVSPropertyOp42
 70
     1
102
RTVSPropertyOp43
 70
     1
102
RTVSPropertyOp44
 70
     1
102
RTVSPropertyOp45
 70
     1
102
RTVSPropertyOp46
 70
     1
102
RTVSPropertyOp47
 70
     1
102
RTVSPropertyOp48
 70
     1
102
RTVSPropertyOp49
 70
     1
102
RTVSPropertyOp50
 70
     1
102
RTVSPropertyOp51
 70
     0
102
RTVSPropertyOp52
 70
     0
102
RTVSPropertyOp53
 70
     1
102
RTVSPropertyOp54
 70
     1
102
RTVSPropertyOp55
 70
     1
102
RTVSPropertyOp56
 70
     1
102
RTVSPropertyOp57
 70
     1
102
RTVSPost2010Prop28
280
     0
102
RTVSPost2010PropOp28
 70
     1
102
RTVSPost2010Prop29
280
     1
102
RTVSPost2010PropOp29
 70
     1
102
RTVSPost2010Prop30
280
     1
102
RTVSPost2010PropOp30
 70
     1
102
RTVSPost2010Prop31
280
     0
102
RTVSPost2010PropOp31
 70
     1
102
RTVSPost2010Prop32
280
     0
102
RTVSPost2010PropOp32
 70
     1
102
RTVSPost2010Prop33
280
     0
102
RTVSPost2010PropOp33
 70
     1
102
RTVSPost2010Prop34
280
     0
102
RTVSPost2010PropOp34
 70
     1
102
RTVSPost2010Prop35
280
     0
102
RTVSPost2010PropOp35
 70
     1
102
RTVSPost2010Prop36
280
     0
102
RTVSPost2010PropOp36
 70
     1
102
RTVSPost2010Prop37
 90
       50
102
RTVSPost2010PropOp37
 70
     1
102
RTVSPost2010Prop38
140
0.0
102
RTVSPost2010PropOp38
 70
     1
102
RTVSPost2010Prop39
140
1.0
102
RTVSPost2010PropOp39
 70
     1
102
RTVSPost2010Prop40
 90
        0
102
RTVSPost2010PropOp40
 70
     1
102
RTVSPost2010Prop41ColorIndex
 90
       18
102
RTVSPost2010Prop41ColorRGB
 90
        0
102
RTVSPost2010PropOp41
 70
     1
102
RTVSPost2010Prop42
 90
       50
102
RTVSPost2010PropOp42
 70
     1
102
RTVSPost2010Prop43
 90
        3
102
RTVSPost2010PropOp43
 70
     1
102
RTVSPost2010Prop44ColorIndex
 90
        5
102
RTVSPost2010Prop44ColorRGB
 90
      255
102
RTVSPost2010PropOp44
 70
     1
102
RTVSPost2010Prop45
280
     0
102
RTVSPost2010PropOp45
 70
     1
102
RTVSPost2010Prop46
 90
       50
102
RTVSPost2010PropOp46
 70
     1
102
RTVSPost2010Prop47
 90
       50
102
RTVSPost2010PropOp47
 70
     1
102
RTVSPost2010Prop48
 90
       50
102
RTVSPost2010PropOp48
 70
     1
102
RTVSPost2010Prop49
280
     0
102
RTVSPost2010PropOp49
 70
     1
102
RTVSPost2010Prop50
 90
       50
102
RTVSPost2010PropOp50
 70
     1
102
RTVSPost2010Prop51ColorIndex
 90
      256
102
RTVSPost2010Prop51ColorRGB
 90
-16777216
102
RTVSPost2010PropOp51
 70
     0
102
RTVSPost2010Prop52
140
1.0
102
RTVSPost2010PropOp52
 70
     0
102
RTVSPost2010Prop53
 90
        2
102
RTVSPost2010PropOp53
 70
     1
102
RTVSPost2010Prop54
  1
strokes_ogs.tif
102
RTVSPost2010PropOp54
 70
     1
102
RTVSPost2010Prop55
280
     0
102
RTVSPost2010PropOp55
 70
     1
102
RTVSPost2010Prop56
140
1.0
102
RTVSPost2010PropOp56
 70
     1
102
RTVSPost2010Prop57
140
1.0
102
RTVSPost2010PropOp57
 70
     1
  0
XRECORD
  5
218
102
{ACAD_REACTORS
330
217
102
}
330
217
100
AcDbXrecord
280
     1
102
RTVSPropertyOp0
 70
     1
102
RTVSPropertyOp1
 70
     1
102
RTVSPropertyOp2
 70
     1
102
RTVSPropertyOp3
 70
     1
102
RTVSPropertyOp4
 70
     1
102
RTVSPropertyOp5
 70
     1
102
RTVSPropertyOp6
 70
     1
102
RTVSPropertyOp7
 70
     1
102
RTVSPropertyOp8
 70
     1
102
RTVSPropertyOp9
 70
     1
102
RTVSPropertyOp10
 70
     1
102
RTVSPropertyOp11
 70
     1
102
RTVSPropertyOp12
 70
     1
102
RTVSPropertyOp13
 70
     1
102
RTVSPropertyOp14
 70
     1
102
RTVSPropertyOp15
 70
     1
102
RTVSPropertyOp16
 70
     1
102
RTVSPropertyOp17
 70
     1
102
RTVSPropertyOp18
 70
     1
102
RTVSPropertyOp19
 70
     1
102
RTVSPropertyOp20
 70
     1
102
RTVSPropertyOp21
 70
     1
102
RTVSPropertyOp22
 70
     1
102
RTVSPropertyOp23
 70
     1
102
RTVSPropertyOp24
 70
     1
102
RTVSPropertyOp25
 70
     1
102
RTVSPropertyOp26
 70
     1
102
RTVSPropertyOp27
 70
     1
102
RTVSPropertyOp28
 70
     1
102
RTVSPropertyOp29
 70
     1
102
RTVSPropertyOp30
 70
     1
102
RTVSPropertyOp31
 70
     1
102
RTVSPropertyOp32
 70
     1
102
RTVSPropertyOp33
 70
     1
102
RTVSPropertyOp34
 70
     1
102
RTVSPropertyOp35
 70
     1
102
RTVSPropertyOp36
 70
     1
102
RTVSPropertyOp37
 70
     1
102
RTVSPropertyOp38
 70
     1
102
RTVSPropertyOp39
 70
     1
102
RTVSPropertyOp40
 70
     1
102
RTVSPropertyOp41
 70
     1
102
RTVSPropertyOp42
 70
     1
102
RTVSPropertyOp43
 70
     1
102
RTVSPropertyOp44
 70
     1
102
RTVSPropertyOp45
 70
     1
102
RTVSPropertyOp46
 70
     1
102
RTVSPropertyOp47
 70
     1
102
RTVSPropertyOp48
 70
     1
102
RTVSPropertyOp49
 70
     1
102
RTVSPropertyOp50
 70
     1
102
RTVSPropertyOp51
 70
     0
102
RTVSPropertyOp52
 70
     0
102
RTVSPropertyOp53
 70
     1
102
RTVSPropertyOp54
 70
     1
102
RTVSPropertyOp55
 70
     1
102
RTVSPropertyOp56
 70
     1
102
RTVSPropertyOp57
 70
     1
102
RTVSPost2010Prop28
280
     0
102
RTVSPost2010PropOp28
 70
     1
102
RTVSPost2010Prop29
280
     1
102
RTVSPost2010PropOp29
 70
     1
102
RTVSPost2010Prop30
280
     1
102
RTVSPost2010PropOp30
 70
     1
102
RTVSPost2010Prop31
280
     0
102
RTVSPost2010PropOp31
 70
     1
102
RTVSPost2010Prop32
280
     0
102
RTVSPost2010PropOp32
 70
     1
102
RTVSPost2010Prop33
280
     0
102
RTVSPost2010PropOp33
 70
     1
102
RTVSPost2010Prop34
280
     0
102
RTVSPost2010PropOp34
 70
     1
102
RTVSPost2010Prop35
280
     0
102
RTVSPost2010PropOp35
 70
     1
102
RTVSPost2010Prop36
280
     0
102
RTVSPost2010PropOp36
 70
     1
102
RTVSPost2010Prop37
 90
       50
102
RTVSPost2010PropOp37
 70
     1
102
RTVSPost2010Prop38
140
0.0
102
RTVSPost2010PropOp38
 70
     1
102
RTVSPost2010Prop39
140
1.0
102
RTVSPost2010PropOp39
 70
     1
102
RTVSPost2010Prop40
 90
        0
102
RTVSPost2010PropOp40
 70
     1
102
RTVSPost2010Prop41ColorIndex
 90
       18
102
RTVSPost2010Prop41ColorRGB
 90
        0
102
RTVSPost2010PropOp41
 70
     1
102
RTVSPost2010Prop42
 90
       50
102
RTVSPost2010PropOp42
 70
     1
102
RTVSPost2010Prop43
 90
        3
102
RTVSPost2010PropOp43
 70
     1
102
RTVSPost2010Prop44ColorIndex
 90
        5
102
RTVSPost2010Prop44ColorRGB
 90
      255
102
RTVSPost2010PropOp44
 70
     1
102
RTVSPost2010Prop45
280
     0
102
RTVSPost2010PropOp45
 70
     1
102
RTVSPost2010Prop46
 90
       50
102
RTVSPost2010PropOp46
 70
     1
102
RTVSPost2010Prop47
 90
       50
102
RTVSPost2010PropOp47
 70
     1
102
RTVSPost2010Prop48
 90
       50
102
RTVSPost2010PropOp48
 70
     1
102
RTVSPost2010Prop49
280
     0
102
RTVSPost2010PropOp49
 70
     1
102
RTVSPost2010Prop50
 90
       50
102
RTVSPost2010PropOp50
 70
     1
102
RTVSPost2010Prop51ColorIndex
 90
      256
102
RTVSPost2010Prop51ColorRGB
 90
-16777216
102
RTVSPost2010PropOp51
 70
     0
102
RTVSPost2010Prop52
140
1.0
102
RTVSPost2010PropOp52
 70
     0
102
RTVSPost2010Prop53
 90
        2
102
RTVSPost2010PropOp53
 70
     1
102
RTVSPost2010Prop54
  1
strokes_ogs.tif
102
RTVSPost2010PropOp54
 70
     1
102
RTVSPost2010Prop55
280
     0
102
RTVSPost2010PropOp55
 70
     1
102
RTVSPost2010Prop56
140
1.0
102
RTVSPost2010PropOp56
 70
     1
102
RTVSPost2010Prop57
140
1.0
102
RTVSPost2010PropOp57
 70
     1
  0
XRECORD
  5
228
102
{ACAD_REACTORS
330
227
102
}
330
227
100
AcDbXrecord
280
     1
102
RTVSPropertyOp0
 70
     0
102
RTVSPropertyOp1
 70
     0
102
RTVSPropertyOp2
 70
     0
102
RTVSPropertyOp3
 70
     0
102
RTVSPropertyOp4
 70
     0
102
RTVSPropertyOp5
 70
     0
102
RTVSPropertyOp6
 70
     0
102
RTVSPropertyOp7
 70
     0
102
RTVSPropertyOp8
 70
     0
102
RTVSPropertyOp9
 70
     0
102
RTVSPropertyOp10
 70
     0
102
RTVSPropertyOp11
 70
     0
102
RTVSPropertyOp12
 70
     0
102
RTVSPropertyOp13
 70
     0
102
RTVSPropertyOp14
 70
     2
102
RTVSPropertyOp15
 70
     0
102
RTVSPropertyOp16
 70
     0
102
RTVSPropertyOp17
 70
     0
102
RTVSPropertyOp18
 70
     0
102
RTVSPropertyOp19
 70
     0
102
RTVSPropertyOp20
 70
     0
102
RTVSPropertyOp21
 70
     0
102
RTVSPropertyOp22
 70
     0
102
RTVSPropertyOp23
 70
     0
102
RTVSPropertyOp24
 70
     0
102
RTVSPropertyOp25
 70
     0
102
RTVSPropertyOp26
 70
     0
102
RTVSPropertyOp27
 70
     0
102
RTVSPropertyOp28
 70
     0
102
RTVSPropertyOp29
 70
     0
102
RTVSPropertyOp30
 70
     0
102
RTVSPropertyOp31
 70
     0
102
RTVSPropertyOp32
 70
     0
102
RTVSPropertyOp33
 70
     0
102
RTVSPropertyOp34
 70
     0
102
RTVSPropertyOp35
 70
     0
102
RTVSPropertyOp36
 70
     0
102
RTVSPropertyOp37
 70
     0
102
RTVSPropertyOp38
 70
     0
102
RTVSPropertyOp39
 70
     0
102
RTVSPropertyOp40
 70
     0
102
RTVSPropertyOp41
 70
     0
102
RTVSPropertyOp42
 70
     0
102
RTVSPropertyOp43
 70
     0
102
RTVSPropertyOp44
 70
     0
102
RTVSPropertyOp45
 70
     0
102
RTVSPropertyOp46
 70
     0
102
RTVSPropertyOp47
 70
     0
102
RTVSPropertyOp48
 70
     0
102
RTVSPropertyOp49
 70
     0
102
RTVSPropertyOp50
 70
     0
102
RTVSPropertyOp51
 70
     0
102
RTVSPropertyOp52
 70
     0
102
RTVSPropertyOp53
 70
     0
102
RTVSPropertyOp54
 70
     0
102
RTVSPropertyOp55
 70
     0
102
RTVSPropertyOp56
 70
     0
102
RTVSPropertyOp57
 70
     0
102
RTVSPost2010Prop28
280
     0
102
RTVSPost2010PropOp28
 70
     0
102
RTVSPost2010Prop29
280
     1
102
RTVSPost2010PropOp29
 70
     0
102
RTVSPost2010Prop30
280
     1
102
RTVSPost2010PropOp30
 70
     0
102
RTVSPost2010Prop31
280
     0
102
RTVSPost2010PropOp31
 70
     0
102
RTVSPost2010Prop32
280
     0
102
RTVSPost2010PropOp32
 70
     0
102
RTVSPost2010Prop33
280
     0
102
RTVSPost2010PropOp33
 70
     0
102
RTVSPost2010Prop34
280
     0
102
RTVSPost2010PropOp34
 70
     0
102
RTVSPost2010Prop35
280
     0
102
RTVSPost2010PropOp35
 70
     0
102
RTVSPost2010Prop36
280
     0
102
RTVSPost2010PropOp36
 70
     0
102
RTVSPost2010Prop37
 90
       50
102
RTVSPost2010PropOp37
 70
     0
102
RTVSPost2010Prop38
140
0.0
102
RTVSPost2010PropOp38
 70
     0
102
RTVSPost2010Prop39
140
1.0
102
RTVSPost2010PropOp39
 70
     0
102
RTVSPost2010Prop40
 90
        0
102
RTVSPost2010PropOp40
 70
     0
102
RTVSPost2010Prop41ColorIndex
 90
       18
102
RTVSPost2010Prop41ColorRGB
 90
        0
102
RTVSPost2010PropOp41
 70
     0
102
RTVSPost2010Prop42
 90
       50
102
RTVSPost2010PropOp42
 70
     0
102
RTVSPost2010Prop43
 90
        3
102
RTVSPost2010PropOp43
 70
     0
102
RTVSPost2010Prop44ColorIndex
 90
        5
102
RTVSPost2010Prop44ColorRGB
 90
      255
102
RTVSPost2010PropOp44
 70
     0
102
RTVSPost2010Prop45
280
     0
102
RTVSPost2010PropOp45
 70
     0
102
RTVSPost2010Prop46
 90
       50
102
RTVSPost2010PropOp46
 70
     0
102
RTVSPost2010Prop47
 90
       50
102
RTVSPost2010PropOp47
 70
     0
102
RTVSPost2010Prop48
 90
       50
102
RTVSPost2010PropOp48
 70
     0
102
RTVSPost2010Prop49
280
     0
102
RTVSPost2010PropOp49
 70
     0
102
RTVSPost2010Prop50
 90
       50
102
RTVSPost2010PropOp50
 70
     0
102
RTVSPost2010Prop51ColorIndex
 90
      256
102
RTVSPost2010Prop51ColorRGB
 90
-16777216
102
RTVSPost2010PropOp51
 70
     0
102
RTVSPost2010Prop52
140
1.0
102
RTVSPost2010PropOp52
 70
     0
102
RTVSPost2010Prop53
 90
        2
102
RTVSPost2010PropOp53
 70
     0
102
RTVSPost2010Prop54
  1
strokes_ogs.tif
102
RTVSPost2010PropOp54
 70
     0
102
RTVSPost2010Prop55
280
     0
102
RTVSPost2010PropOp55
 70
     0
102
RTVSPost2010Prop56
140
1.0
102
RTVSPost2010PropOp56
 70
     0
102
RTVSPost2010Prop57
140
1.0
102
RTVSPost2010PropOp57
 70
     0
  0
XRECORD
  5
220
102
{ACAD_REACTORS
330
21F
102
}
330
21F
100
AcDbXrecord
280
     1
102
RTVSPropertyOp0
 70
     1
102
RTVSPropertyOp1
 70
     1
102
RTVSPropertyOp2
 70
     1
102
RTVSPropertyOp3
 70
     1
102
RTVSPropertyOp4
 70
     1
102
RTVSPropertyOp5
 70
     1
102
RTVSPropertyOp6
 70
     1
102
RTVSPropertyOp7
 70
     1
102
RTVSPropertyOp8
 70
     1
102
RTVSPropertyOp9
 70
     1
102
RTVSPropertyOp10
 70
     1
102
RTVSPropertyOp11
 70
     1
102
RTVSPropertyOp12
 70
     1
102
RTVSPropertyOp13
 70
     1
102
RTVSPropertyOp14
 70
     1
102
RTVSPropertyOp15
 70
     1
102
RTVSPropertyOp16
 70
     1
102
RTVSPropertyOp17
 70
     1
102
RTVSPropertyOp18
 70
     1
102
RTVSPropertyOp19
 70
     1
102
RTVSPropertyOp20
 70
     1
102
RTVSPropertyOp21
 70
     1
102
RTVSPropertyOp22
 70
     1
102
RTVSPropertyOp23
 70
     1
102
RTVSPropertyOp24
 70
     1
102
RTVSPropertyOp25
 70
     1
102
RTVSPropertyOp26
 70
     1
102
RTVSPropertyOp27
 70
     1
102
RTVSPropertyOp28
 70
     1
102
RTVSPropertyOp29
 70
     1
102
RTVSPropertyOp30
 70
     1
102
RTVSPropertyOp31
 70
     1
102
RTVSPropertyOp32
 70
     1
102
RTVSPropertyOp33
 70
     1
102
RTVSPropertyOp34
 70
     1
102
RTVSPropertyOp35
 70
     1
102
RTVSPropertyOp36
 70
     1
102
RTVSPropertyOp37
 70
     1
102
RTVSPropertyOp38
 70
     1
102
RTVSPropertyOp39
 70
     1
102
RTVSPropertyOp40
 70
     1
102
RTVSPropertyOp41
 70
     1
102
RTVSPropertyOp42
 70
     1
102
RTVSPropertyOp43
 70
     1
102
RTVSPropertyOp44
 70
     1
102
RTVSPropertyOp45
 70
     1
102
RTVSPropertyOp46
 70
     1
102
RTVSPropertyOp47
 70
     1
102
RTVSPropertyOp48
 70
     1
102
RTVSPropertyOp49
 70
     1
102
RTVSPropertyOp50
 70
     1
102
RTVSPropertyOp51
 70
     0
102
RTVSPropertyOp52
 70
     0
102
RTVSPropertyOp53
 70
     1
102
RTVSPropertyOp54
 70
     1
102
RTVSPropertyOp55
 70
     1
102
RTVSPropertyOp56
 70
     1
102
RTVSPropertyOp57
 70
     1
102
RTVSPost2010Prop28
280
     0
102
RTVSPost2010PropOp28
 70
     1
102
RTVSPost2010Prop29
280
     1
102
RTVSPost2010PropOp29
 70
     1
102
RTVSPost2010Prop30
280
     1
102
RTVSPost2010PropOp30
 70
     1
102
RTVSPost2010Prop31
280
     0
102
RTVSPost2010PropOp31
 70
     1
102
RTVSPost2010Prop32
280
     0
102
RTVSPost2010PropOp32
 70
     1
102
RTVSPost2010Prop33
280
     0
102
RTVSPost2010PropOp33
 70
     1
102
RTVSPost2010Prop34
280
     0
102
RTVSPost2010PropOp34
 70
     1
102
RTVSPost2010Prop35
280
     0
102
RTVSPost2010PropOp35
 70
     1
102
RTVSPost2010Prop36
280
     0
102
RTVSPost2010PropOp36
 70
     1
102
RTVSPost2010Prop37
 90
       50
102
RTVSPost2010PropOp37
 70
     1
102
RTVSPost2010Prop38
140
0.0
102
RTVSPost2010PropOp38
 70
     1
102
RTVSPost2010Prop39
140
1.0
102
RTVSPost2010PropOp39
 70
     1
102
RTVSPost2010Prop40
 90
        0
102
RTVSPost2010PropOp40
 70
     1
102
RTVSPost2010Prop41ColorIndex
 90
       18
102
RTVSPost2010Prop41ColorRGB
 90
        0
102
RTVSPost2010PropOp41
 70
     1
102
RTVSPost2010Prop42
 90
       50
102
RTVSPost2010PropOp42
 70
     1
102
RTVSPost2010Prop43
 90
        3
102
RTVSPost2010PropOp43
 70
     1
102
RTVSPost2010Prop44ColorIndex
 90
        5
102
RTVSPost2010Prop44ColorRGB
 90
      255
102
RTVSPost2010PropOp44
 70
     1
102
RTVSPost2010Prop45
280
     0
102
RTVSPost2010PropOp45
 70
     1
102
RTVSPost2010Prop46
 90
       50
102
RTVSPost2010PropOp46
 70
     1
102
RTVSPost2010Prop47
 90
       50
102
RTVSPost2010PropOp47
 70
     1
102
RTVSPost2010Prop48
 90
       50
102
RTVSPost2010PropOp48
 70
     1
102
RTVSPost2010Prop49
280
     0
102
RTVSPost2010PropOp49
 70
     1
102
RTVSPost2010Prop50
 90
       50
102
RTVSPost2010PropOp50
 70
     1
102
RTVSPost2010Prop51ColorIndex
 90
      256
102
RTVSPost2010Prop51ColorRGB
 90
-16777216
102
RTVSPost2010PropOp51
 70
     0
102
RTVSPost2010Prop52
140
1.0
102
RTVSPost2010PropOp52
 70
     0
102
RTVSPost2010Prop53
 90
        2
102
RTVSPost2010PropOp53
 70
     1
102
RTVSPost2010Prop54
  1
strokes_ogs.tif
102
RTVSPost2010PropOp54
 70
     1
102
RTVSPost2010Prop55
280
     0
102
RTVSPost2010PropOp55
 70
     1
102
RTVSPost2010Prop56
140
1.0
102
RTVSPost2010PropOp56
 70
     1
102
RTVSPost2010Prop57
140
1.0
102
RTVSPost2010PropOp57
 70
     1
  0
XRECORD
  5
204
102
{ACAD_REACTORS
330
203
102
}
330
203
100
AcDbXrecord
280
     1
102
RTVSPropertyOp0
 70
     1
102
RTVSPropertyOp1
 70
     1
102
RTVSPropertyOp2
 70
     1
102
RTVSPropertyOp3
 70
     1
102
RTVSPropertyOp4
 70
     1
102
RTVSPropertyOp5
 70
     1
102
RTVSPropertyOp6
 70
     1
102
RTVSPropertyOp7
 70
     1
102
RTVSPropertyOp8
 70
     1
102
RTVSPropertyOp9
 70
     1
102
RTVSPropertyOp10
 70
     1
102
RTVSPropertyOp11
 70
     1
102
RTVSPropertyOp12
 70
     1
102
RTVSPropertyOp13
 70
     1
102
RTVSPropertyOp14
 70
     1
102
RTVSPropertyOp15
 70
     1
102
RTVSPropertyOp16
 70
     1
102
RTVSPropertyOp17
 70
     1
102
RTVSPropertyOp18
 70
     1
102
RTVSPropertyOp19
 70
     1
102
RTVSPropertyOp20
 70
     1
102
RTVSPropertyOp21
 70
     1
102
RTVSPropertyOp22
 70
     1
102
RTVSPropertyOp23
 70
     1
102
RTVSPropertyOp24
 70
     1
102
RTVSPropertyOp25
 70
     1
102
RTVSPropertyOp26
 70
     1
102
RTVSPropertyOp27
 70
     1
102
RTVSPropertyOp28
 70
     1
102
RTVSPropertyOp29
 70
     1
102
RTVSPropertyOp30
 70
     1
102
RTVSPropertyOp31
 70
     1
102
RTVSPropertyOp32
 70
     1
102
RTVSPropertyOp33
 70
     1
102
RTVSPropertyOp34
 70
     1
102
RTVSPropertyOp35
 70
     1
102
RTVSPropertyOp36
 70
     1
102
RTVSPropertyOp37
 70
     1
102
RTVSPropertyOp38
 70
     1
102
RTVSPropertyOp39
 70
     1
102
RTVSPropertyOp40
 70
     1
102
RTVSPropertyOp41
 70
     1
102
RTVSPropertyOp42
 70
     1
102
RTVSPropertyOp43
 70
     1
102
RTVSPropertyOp44
 70
     1
102
RTVSPropertyOp45
 70
     1
102
RTVSPropertyOp46
 70
     1
102
RTVSPropertyOp47
 70
     1
102
RTVSPropertyOp48
 70
     1
102
RTVSPropertyOp49
 70
     1
102
RTVSPropertyOp50
 70
     1
102
RTVSPropertyOp51
 70
     0
102
RTVSPropertyOp52
 70
     0
102
RTVSPropertyOp53
 70
     1
102
RTVSPropertyOp54
 70
     1
102
RTVSPropertyOp55
 70
     1
102
RTVSPropertyOp56
 70
     1
102
RTVSPropertyOp57
 70
     1
102
RTVSPost2010Prop28
280
     0
102
RTVSPost2010PropOp28
 70
     1
102
RTVSPost2010Prop29
280
     1
102
RTVSPost2010PropOp29
 70
     1
102
RTVSPost2010Prop30
280
     1
102
RTVSPost2010PropOp30
 70
     1
102
RTVSPost2010Prop31
280
     0
102
RTVSPost2010PropOp31
 70
     1
102
RTVSPost2010Prop32
280
     0
102
RTVSPost2010PropOp32
 70
     1
102
RTVSPost2010Prop33
280
     0
102
RTVSPost2010PropOp33
 70
     1
102
RTVSPost2010Prop34
280
     0
102
RTVSPost2010PropOp34
 70
     1
102
RTVSPost2010Prop35
280
     0
102
RTVSPost2010PropOp35
 70
     1
102
RTVSPost2010Prop36
280
     0
102
RTVSPost2010PropOp36
 70
     1
102
RTVSPost2010Prop37
 90
       50
102
RTVSPost2010PropOp37
 70
     1
102
RTVSPost2010Prop38
140
0.0
102
RTVSPost2010PropOp38
 70
     1
102
RTVSPost2010Prop39
140
1.0
102
RTVSPost2010PropOp39
 70
     1
102
RTVSPost2010Prop40
 90
        0
102
RTVSPost2010PropOp40
 70
     1
102
RTVSPost2010Prop41ColorIndex
 90
       18
102
RTVSPost2010Prop41ColorRGB
 90
        0
102
RTVSPost2010PropOp41
 70
     1
102
RTVSPost2010Prop42
 90
       50
102
RTVSPost2010PropOp42
 70
     1
102
RTVSPost2010Prop43
 90
        3
102
RTVSPost2010PropOp43
 70
     1
102
RTVSPost2010Prop44ColorIndex
 90
        5
102
RTVSPost2010Prop44ColorRGB
 90
      255
102
RTVSPost2010PropOp44
 70
     1
102
RTVSPost2010Prop45
280
     0
102
RTVSPost2010PropOp45
 70
     1
102
RTVSPost2010Prop46
 90
       50
102
RTVSPost2010PropOp46
 70
     1
102
RTVSPost2010Prop47
 90
       50
102
RTVSPost2010PropOp47
 70
     1
102
RTVSPost2010Prop48
 90
       50
102
RTVSPost2010PropOp48
 70
     1
102
RTVSPost2010Prop49
280
     0
102
RTVSPost2010PropOp49
 70
     1
102
RTVSPost2010Prop50
 90
       50
102
RTVSPost2010PropOp50
 70
     1
102
RTVSPost2010Prop51ColorIndex
 90
      256
102
RTVSPost2010Prop51ColorRGB
 90
-16777216
102
RTVSPost2010PropOp51
 70
     0
102
RTVSPost2010Prop52
140
1.0
102
RTVSPost2010PropOp52
 70
     0
102
RTVSPost2010Prop53
 90
        2
102
RTVSPost2010PropOp53
 70
     1
102
RTVSPost2010Prop54
  1
strokes_ogs.tif
102
RTVSPost2010PropOp54
 70
     1
102
RTVSPost2010Prop55
280
     0
102
RTVSPost2010PropOp55
 70
     1
102
RTVSPost2010Prop56
140
1.0
102
RTVSPost2010PropOp56
 70
     1
102
RTVSPost2010Prop57
140
1.0
102
RTVSPost2010PropOp57
 70
     1
  0
XRECORD
  5
206
102
{ACAD_REACTORS
330
205
102
}
330
205
100
AcDbXrecord
280
     1
102
RTVSPropertyOp0
 70
     1
102
RTVSPropertyOp1
 70
     1
102
RTVSPropertyOp2
 70
     1
102
RTVSPropertyOp3
 70
     1
102
RTVSPropertyOp4
 70
     1
102
RTVSPropertyOp5
 70
     1
102
RTVSPropertyOp6
 70
     1
102
RTVSPropertyOp7
 70
     1
102
RTVSPropertyOp8
 70
     1
102
RTVSPropertyOp9
 70
     1
102
RTVSPropertyOp10
 70
     1
102
RTVSPropertyOp11
 70
     1
102
RTVSPropertyOp12
 70
     1
102
RTVSPropertyOp13
 70
     1
102
RTVSPropertyOp14
 70
     1
102
RTVSPropertyOp15
 70
     1
102
RTVSPropertyOp16
 70
     1
102
RTVSPropertyOp17
 70
     1
102
RTVSPropertyOp18
 70
     1
102
RTVSPropertyOp19
 70
     1
102
RTVSPropertyOp20
 70
     1
102
RTVSPropertyOp21
 70
     1
102
RTVSPropertyOp22
 70
     1
102
RTVSPropertyOp23
 70
     1
102
RTVSPropertyOp24
 70
     1
102
RTVSPropertyOp25
 70
     1
102
RTVSPropertyOp26
 70
     1
102
RTVSPropertyOp27
 70
     1
102
RTVSPropertyOp28
 70
     1
102
RTVSPropertyOp29
 70
     1
102
RTVSPropertyOp30
 70
     1
102
RTVSPropertyOp31
 70
     1
102
RTVSPropertyOp32
 70
     1
102
RTVSPropertyOp33
 70
     1
102
RTVSPropertyOp34
 70
     1
102
RTVSPropertyOp35
 70
     1
102
RTVSPropertyOp36
 70
     1
102
RTVSPropertyOp37
 70
     1
102
RTVSPropertyOp38
 70
     1
102
RTVSPropertyOp39
 70
     1
102
RTVSPropertyOp40
 70
     1
102
RTVSPropertyOp41
 70
     1
102
RTVSPropertyOp42
 70
     1
102
RTVSPropertyOp43
 70
     1
102
RTVSPropertyOp44
 70
     1
102
RTVSPropertyOp45
 70
     1
102
RTVSPropertyOp46
 70
     1
102
RTVSPropertyOp47
 70
     1
102
RTVSPropertyOp48
 70
     1
102
RTVSPropertyOp49
 70
     1
102
RTVSPropertyOp50
 70
     1
102
RTVSPropertyOp51
 70
     0
102
RTVSPropertyOp52
 70
     0
102
RTVSPropertyOp53
 70
     1
102
RTVSPropertyOp54
 70
     1
102
RTVSPropertyOp55
 70
     1
102
RTVSPropertyOp56
 70
     1
102
RTVSPropertyOp57
 70
     1
102
RTVSPost2010Prop28
280
     0
102
RTVSPost2010PropOp28
 70
     1
102
RTVSPost2010Prop29
280
     1
102
RTVSPost2010PropOp29
 70
     1
102
RTVSPost2010Prop30
280
     1
102
RTVSPost2010PropOp30
 70
     1
102
RTVSPost2010Prop31
280
     0
102
RTVSPost2010PropOp31
 70
     1
102
RTVSPost2010Prop32
280
     0
102
RTVSPost2010PropOp32
 70
     1
102
RTVSPost2010Prop33
280
     0
102
RTVSPost2010PropOp33
 70
     1
102
RTVSPost2010Prop34
280
     0
102
RTVSPost2010PropOp34
 70
     1
102
RTVSPost2010Prop35
280
     0
102
RTVSPost2010PropOp35
 70
     1
102
RTVSPost2010Prop36
280
     0
102
RTVSPost2010PropOp36
 70
     1
102
RTVSPost2010Prop37
 90
       50
102
RTVSPost2010PropOp37
 70
     1
102
RTVSPost2010Prop38
140
0.0
102
RTVSPost2010PropOp38
 70
     1
102
RTVSPost2010Prop39
140
1.0
102
RTVSPost2010PropOp39
 70
     1
102
RTVSPost2010Prop40
 90
        0
102
RTVSPost2010PropOp40
 70
     1
102
RTVSPost2010Prop41ColorIndex
 90
       18
102
RTVSPost2010Prop41ColorRGB
 90
        0
102
RTVSPost2010PropOp41
 70
     1
102
RTVSPost2010Prop42
 90
       50
102
RTVSPost2010PropOp42
 70
     1
102
RTVSPost2010Prop43
 90
        3
102
RTVSPost2010PropOp43
 70
     1
102
RTVSPost2010Prop44ColorIndex
 90
        5
102
RTVSPost2010Prop44ColorRGB
 90
      255
102
RTVSPost2010PropOp44
 70
     1
102
RTVSPost2010Prop45
280
     0
102
RTVSPost2010PropOp45
 70
     1
102
RTVSPost2010Prop46
 90
       50
102
RTVSPost2010PropOp46
 70
     1
102
RTVSPost2010Prop47
 90
       50
102
RTVSPost2010PropOp47
 70
     1
102
RTVSPost2010Prop48
 90
       50
102
RTVSPost2010PropOp48
 70
     1
102
RTVSPost2010Prop49
280
     0
102
RTVSPost2010PropOp49
 70
     1
102
RTVSPost2010Prop50
 90
       50
102
RTVSPost2010PropOp50
 70
     1
102
RTVSPost2010Prop51ColorIndex
 90
      256
102
RTVSPost2010Prop51ColorRGB
 90
-16777216
102
RTVSPost2010PropOp51
 70
     0
102
RTVSPost2010Prop52
140
1.0
102
RTVSPost2010PropOp52
 70
     0
102
RTVSPost2010Prop53
 90
        2
102
RTVSPost2010PropOp53
 70
     1
102
RTVSPost2010Prop54
  1
strokes_ogs.tif
102
RTVSPost2010PropOp54
 70
     1
102
RTVSPost2010Prop55
280
     0
102
RTVSPost2010PropOp55
 70
     1
102
RTVSPost2010Prop56
140
1.0
102
RTVSPost2010PropOp56
 70
     1
102
RTVSPost2010Prop57
140
1.0
102
RTVSPost2010PropOp57
 70
     1
  0
XRECORD
  5
208
102
{ACAD_REACTORS
330
207
102
}
330
207
100
AcDbXrecord
280
     1
102
RTVSPropertyOp0
 70
     1
102
RTVSPropertyOp1
 70
     1
102
RTVSPropertyOp2
 70
     1
102
RTVSPropertyOp3
 70
     1
102
RTVSPropertyOp4
 70
     1
102
RTVSPropertyOp5
 70
     1
102
RTVSPropertyOp6
 70
     1
102
RTVSPropertyOp7
 70
     1
102
RTVSPropertyOp8
 70
     1
102
RTVSPropertyOp9
 70
     1
102
RTVSPropertyOp10
 70
     1
102
RTVSPropertyOp11
 70
     1
102
RTVSPropertyOp12
 70
     1
102
RTVSPropertyOp13
 70
     1
102
RTVSPropertyOp14
 70
     1
102
RTVSPropertyOp15
 70
     1
102
RTVSPropertyOp16
 70
     1
102
RTVSPropertyOp17
 70
     1
102
RTVSPropertyOp18
 70
     1
102
RTVSPropertyOp19
 70
     1
102
RTVSPropertyOp20
 70
     1
102
RTVSPropertyOp21
 70
     1
102
RTVSPropertyOp22
 70
     1
102
RTVSPropertyOp23
 70
     1
102
RTVSPropertyOp24
 70
     1
102
RTVSPropertyOp25
 70
     1
102
RTVSPropertyOp26
 70
     1
102
RTVSPropertyOp27
 70
     1
102
RTVSPropertyOp28
 70
     1
102
RTVSPropertyOp29
 70
     1
102
RTVSPropertyOp30
 70
     1
102
RTVSPropertyOp31
 70
     1
102
RTVSPropertyOp32
 70
     1
102
RTVSPropertyOp33
 70
     1
102
RTVSPropertyOp34
 70
     1
102
RTVSPropertyOp35
 70
     1
102
RTVSPropertyOp36
 70
     1
102
RTVSPropertyOp37
 70
     1
102
RTVSPropertyOp38
 70
     1
102
RTVSPropertyOp39
 70
     1
102
RTVSPropertyOp40
 70
     1
102
RTVSPropertyOp41
 70
     1
102
RTVSPropertyOp42
 70
     1
102
RTVSPropertyOp43
 70
     1
102
RTVSPropertyOp44
 70
     1
102
RTVSPropertyOp45
 70
     1
102
RTVSPropertyOp46
 70
     1
102
RTVSPropertyOp47
 70
     1
102
RTVSPropertyOp48
 70
     1
102
RTVSPropertyOp49
 70
     1
102
RTVSPropertyOp50
 70
     1
102
RTVSPropertyOp51
 70
     0
102
RTVSPropertyOp52
 70
     0
102
RTVSPropertyOp53
 70
     1
102
RTVSPropertyOp54
 70
     1
102
RTVSPropertyOp55
 70
     1
102
RTVSPropertyOp56
 70
     1
102
RTVSPropertyOp57
 70
     1
102
RTVSPost2010Prop28
280
     0
102
RTVSPost2010PropOp28
 70
     1
102
RTVSPost2010Prop29
280
     1
102
RTVSPost2010PropOp29
 70
     1
102
RTVSPost2010Prop30
280
     1
102
RTVSPost2010PropOp30
 70
     1
102
RTVSPost2010Prop31
280
     0
102
RTVSPost2010PropOp31
 70
     1
102
RTVSPost2010Prop32
280
     0
102
RTVSPost2010PropOp32
 70
     1
102
RTVSPost2010Prop33
280
     0
102
RTVSPost2010PropOp33
 70
     1
102
RTVSPost2010Prop34
280
     0
102
RTVSPost2010PropOp34
 70
     1
102
RTVSPost2010Prop35
280
     0
102
RTVSPost2010PropOp35
 70
     1
102
RTVSPost2010Prop36
280
     0
102
RTVSPost2010PropOp36
 70
     1
102
RTVSPost2010Prop37
 90
       50
102
RTVSPost2010PropOp37
 70
     1
102
RTVSPost2010Prop38
140
0.0
102
RTVSPost2010PropOp38
 70
     1
102
RTVSPost2010Prop39
140
1.0
102
RTVSPost2010PropOp39
 70
     1
102
RTVSPost2010Prop40
 90
        0
102
RTVSPost2010PropOp40
 70
     1
102
RTVSPost2010Prop41ColorIndex
 90
       18
102
RTVSPost2010Prop41ColorRGB
 90
        0
102
RTVSPost2010PropOp41
 70
     1
102
RTVSPost2010Prop42
 90
       50
102
RTVSPost2010PropOp42
 70
     1
102
RTVSPost2010Prop43
 90
        3
102
RTVSPost2010PropOp43
 70
     1
102
RTVSPost2010Prop44ColorIndex
 90
        5
102
RTVSPost2010Prop44ColorRGB
 90
      255
102
RTVSPost2010PropOp44
 70
     1
102
RTVSPost2010Prop45
280
     0
102
RTVSPost2010PropOp45
 70
     1
102
RTVSPost2010Prop46
 90
       50
102
RTVSPost2010PropOp46
 70
     1
102
RTVSPost2010Prop47
 90
       50
102
RTVSPost2010PropOp47
 70
     1
102
RTVSPost2010Prop48
 90
       50
102
RTVSPost2010PropOp48
 70
     1
102
RTVSPost2010Prop49
280
     0
102
RTVSPost2010PropOp49
 70
     1
102
RTVSPost2010Prop50
 90
       50
102
RTVSPost2010PropOp50
 70
     1
102
RTVSPost2010Prop51ColorIndex
 90
      256
102
RTVSPost2010Prop51ColorRGB
 90
-16777216
102
RTVSPost2010PropOp51
 70
     0
102
RTVSPost2010Prop52
140
1.0
102
RTVSPost2010PropOp52
 70
     0
102
RTVSPost2010Prop53
 90
        2
102
RTVSPost2010PropOp53
 70
     1
102
RTVSPost2010Prop54
  1
strokes_ogs.tif
102
RTVSPost2010PropOp54
 70
     1
102
RTVSPost2010Prop55
280
     0
102
RTVSPost2010PropOp55
 70
     1
102
RTVSPost2010Prop56
140
1.0
102
RTVSPost2010PropOp56
 70
     1
102
RTVSPost2010Prop57
140
1.0
102
RTVSPost2010PropOp57
 70
     1
  0
XRECORD
  5
20A
102
{ACAD_REACTORS
330
209
102
}
330
209
100
AcDbXrecord
280
     1
102
RTVSPropertyOp0
 70
     1
102
RTVSPropertyOp1
 70
     1
102
RTVSPropertyOp2
 70
     1
102
RTVSPropertyOp3
 70
     1
102
RTVSPropertyOp4
 70
     1
102
RTVSPropertyOp5
 70
     1
102
RTVSPropertyOp6
 70
     1
102
RTVSPropertyOp7
 70
     1
102
RTVSPropertyOp8
 70
     1
102
RTVSPropertyOp9
 70
     1
102
RTVSPropertyOp10
 70
     1
102
RTVSPropertyOp11
 70
     1
102
RTVSPropertyOp12
 70
     1
102
RTVSPropertyOp13
 70
     1
102
RTVSPropertyOp14
 70
     1
102
RTVSPropertyOp15
 70
     1
102
RTVSPropertyOp16
 70
     1
102
RTVSPropertyOp17
 70
     1
102
RTVSPropertyOp18
 70
     1
102
RTVSPropertyOp19
 70
     1
102
RTVSPropertyOp20
 70
     1
102
RTVSPropertyOp21
 70
     1
102
RTVSPropertyOp22
 70
     1
102
RTVSPropertyOp23
 70
     1
102
RTVSPropertyOp24
 70
     1
102
RTVSPropertyOp25
 70
     1
102
RTVSPropertyOp26
 70
     1
102
RTVSPropertyOp27
 70
     1
102
RTVSPropertyOp28
 70
     1
102
RTVSPropertyOp29
 70
     1
102
RTVSPropertyOp30
 70
     1
102
RTVSPropertyOp31
 70
     1
102
RTVSPropertyOp32
 70
     1
102
RTVSPropertyOp33
 70
     1
102
RTVSPropertyOp34
 70
     1
102
RTVSPropertyOp35
 70
     1
102
RTVSPropertyOp36
 70
     1
102
RTVSPropertyOp37
 70
     1
102
RTVSPropertyOp38
 70
     1
102
RTVSPropertyOp39
 70
     1
102
RTVSPropertyOp40
 70
     1
102
RTVSPropertyOp41
 70
     1
102
RTVSPropertyOp42
 70
     1
102
RTVSPropertyOp43
 70
     1
102
RTVSPropertyOp44
 70
     1
102
RTVSPropertyOp45
 70
     1
102
RTVSPropertyOp46
 70
     1
102
RTVSPropertyOp47
 70
     1
102
RTVSPropertyOp48
 70
     1
102
RTVSPropertyOp49
 70
     1
102
RTVSPropertyOp50
 70
     1
102
RTVSPropertyOp51
 70
     0
102
RTVSPropertyOp52
 70
     0
102
RTVSPropertyOp53
 70
     1
102
RTVSPropertyOp54
 70
     1
102
RTVSPropertyOp55
 70
     1
102
RTVSPropertyOp56
 70
     1
102
RTVSPropertyOp57
 70
     1
102
RTVSPost2010Prop28
280
     0
102
RTVSPost2010PropOp28
 70
     1
102
RTVSPost2010Prop29
280
     1
102
RTVSPost2010PropOp29
 70
     1
102
RTVSPost2010Prop30
280
     1
102
RTVSPost2010PropOp30
 70
     1
102
RTVSPost2010Prop31
280
     0
102
RTVSPost2010PropOp31
 70
     1
102
RTVSPost2010Prop32
280
     0
102
RTVSPost2010PropOp32
 70
     1
102
RTVSPost2010Prop33
280
     0
102
RTVSPost2010PropOp33
 70
     1
102
RTVSPost2010Prop34
280
     0
102
RTVSPost2010PropOp34
 70
     1
102
RTVSPost2010Prop35
280
     0
102
RTVSPost2010PropOp35
 70
     1
102
RTVSPost2010Prop36
280
     0
102
RTVSPost2010PropOp36
 70
     1
102
RTVSPost2010Prop37
 90
       50
102
RTVSPost2010PropOp37
 70
     1
102
RTVSPost2010Prop38
140
0.0
102
RTVSPost2010PropOp38
 70
     1
102
RTVSPost2010Prop39
140
1.0
102
RTVSPost2010PropOp39
 70
     1
102
RTVSPost2010Prop40
 90
        0
102
RTVSPost2010PropOp40
 70
     1
102
RTVSPost2010Prop41ColorIndex
 90
       18
102
RTVSPost2010Prop41ColorRGB
 90
        0
102
RTVSPost2010PropOp41
 70
     1
102
RTVSPost2010Prop42
 90
       50
102
RTVSPost2010PropOp42
 70
     1
102
RTVSPost2010Prop43
 90
        3
102
RTVSPost2010PropOp43
 70
     1
102
RTVSPost2010Prop44ColorIndex
 90
        5
102
RTVSPost2010Prop44ColorRGB
 90
      255
102
RTVSPost2010PropOp44
 70
     1
102
RTVSPost2010Prop45
280
     0
102
RTVSPost2010PropOp45
 70
     1
102
RTVSPost2010Prop46
 90
       50
102
RTVSPost2010PropOp46
 70
     1
102
RTVSPost2010Prop47
 90
       50
102
RTVSPost2010PropOp47
 70
     1
102
RTVSPost2010Prop48
 90
       50
102
RTVSPost2010PropOp48
 70
     1
102
RTVSPost2010Prop49
280
     0
102
RTVSPost2010PropOp49
 70
     1
102
RTVSPost2010Prop50
 90
       50
102
RTVSPost2010PropOp50
 70
     1
102
RTVSPost2010Prop51ColorIndex
 90
      256
102
RTVSPost2010Prop51ColorRGB
 90
-16777216
102
RTVSPost2010PropOp51
 70
     0
102
RTVSPost2010Prop52
140
1.0
102
RTVSPost2010PropOp52
 70
     0
102
RTVSPost2010Prop53
 90
        2
102
RTVSPost2010PropOp53
 70
     1
102
RTVSPost2010Prop54
  1
strokes_ogs.tif
102
RTVSPost2010PropOp54
 70
     1
102
RTVSPost2010Prop55
280
     0
102
RTVSPost2010PropOp55
 70
     1
102
RTVSPost2010Prop56
140
1.0
102
RTVSPost2010PropOp56
 70
     1
102
RTVSPost2010Prop57
140
1.0
102
RTVSPost2010PropOp57
 70
     1
  0
XRECORD
  5
210
102
{ACAD_REACTORS
330
20F
102
}
330
20F
100
AcDbXrecord
280
     1
102
RTVSPropertyOp0
 70
     1
102
RTVSPropertyOp1
 70
     1
102
RTVSPropertyOp2
 70
     1
102
RTVSPropertyOp3
 70
     1
102
RTVSPropertyOp4
 70
     1
102
RTVSPropertyOp5
 70
     1
102
RTVSPropertyOp6
 70
     1
102
RTVSPropertyOp7
 70
     1
102
RTVSPropertyOp8
 70
     1
102
RTVSPropertyOp9
 70
     1
102
RTVSPropertyOp10
 70
     1
102
RTVSPropertyOp11
 70
     1
102
RTVSPropertyOp12
 70
     1
102
RTVSPropertyOp13
 70
     1
102
RTVSPropertyOp14
 70
     1
102
RTVSPropertyOp15
 70
     1
102
RTVSPropertyOp16
 70
     1
102
RTVSPropertyOp17
 70
     1
102
RTVSPropertyOp18
 70
     1
102
RTVSPropertyOp19
 70
     1
102
RTVSPropertyOp20
 70
     1
102
RTVSPropertyOp21
 70
     1
102
RTVSPropertyOp22
 70
     1
102
RTVSPropertyOp23
 70
     1
102
RTVSPropertyOp24
 70
     1
102
RTVSPropertyOp25
 70
     1
102
RTVSPropertyOp26
 70
     1
102
RTVSPropertyOp27
 70
     1
102
RTVSPropertyOp28
 70
     1
102
RTVSPropertyOp29
 70
     1
102
RTVSPropertyOp30
 70
     1
102
RTVSPropertyOp31
 70
     1
102
RTVSPropertyOp32
 70
     1
102
RTVSPropertyOp33
 70
     1
102
RTVSPropertyOp34
 70
     1
102
RTVSPropertyOp35
 70
     1
102
RTVSPropertyOp36
 70
     1
102
RTVSPropertyOp37
 70
     1
102
RTVSPropertyOp38
 70
     1
102
RTVSPropertyOp39
 70
     1
102
RTVSPropertyOp40
 70
     1
102
RTVSPropertyOp41
 70
     1
102
RTVSPropertyOp42
 70
     1
102
RTVSPropertyOp43
 70
     1
102
RTVSPropertyOp44
 70
     1
102
RTVSPropertyOp45
 70
     1
102
RTVSPropertyOp46
 70
     1
102
RTVSPropertyOp47
 70
     1
102
RTVSPropertyOp48
 70
     1
102
RTVSPropertyOp49
 70
     1
102
RTVSPropertyOp50
 70
     1
102
RTVSPropertyOp51
 70
     0
102
RTVSPropertyOp52
 70
     0
102
RTVSPropertyOp53
 70
     1
102
RTVSPropertyOp54
 70
     1
102
RTVSPropertyOp55
 70
     1
102
RTVSPropertyOp56
 70
     1
102
RTVSPropertyOp57
 70
     1
102
RTVSPost2010Prop28
280
     0
102
RTVSPost2010PropOp28
 70
     1
102
RTVSPost2010Prop29
280
     1
102
RTVSPost2010PropOp29
 70
     1
102
RTVSPost2010Prop30
280
     1
102
RTVSPost2010PropOp30
 70
     1
102
RTVSPost2010Prop31
280
     0
102
RTVSPost2010PropOp31
 70
     1
102
RTVSPost2010Prop32
280
     0
102
RTVSPost2010PropOp32
 70
     1
102
RTVSPost2010Prop33
280
     0
102
RTVSPost2010PropOp33
 70
     1
102
RTVSPost2010Prop34
280
     0
102
RTVSPost2010PropOp34
 70
     1
102
RTVSPost2010Prop35
280
     0
102
RTVSPost2010PropOp35
 70
     1
102
RTVSPost2010Prop36
280
     0
102
RTVSPost2010PropOp36
 70
     1
102
RTVSPost2010Prop37
 90
       50
102
RTVSPost2010PropOp37
 70
     1
102
RTVSPost2010Prop38
140
0.0
102
RTVSPost2010PropOp38
 70
     1
102
RTVSPost2010Prop39
140
1.0
102
RTVSPost2010PropOp39
 70
     1
102
RTVSPost2010Prop40
 90
        0
102
RTVSPost2010PropOp40
 70
     1
102
RTVSPost2010Prop41ColorIndex
 90
       18
102
RTVSPost2010Prop41ColorRGB
 90
        0
102
RTVSPost2010PropOp41
 70
     1
102
RTVSPost2010Prop42
 90
       50
102
RTVSPost2010PropOp42
 70
     1
102
RTVSPost2010Prop43
 90
        3
102
RTVSPost2010PropOp43
 70
     1
102
RTVSPost2010Prop44ColorIndex
 90
        5
102
RTVSPost2010Prop44ColorRGB
 90
      255
102
RTVSPost2010PropOp44
 70
     1
102
RTVSPost2010Prop45
280
     0
102
RTVSPost2010PropOp45
 70
     1
102
RTVSPost2010Prop46
 90
       50
102
RTVSPost2010PropOp46
 70
     1
102
RTVSPost2010Prop47
 90
       50
102
RTVSPost2010PropOp47
 70
     1
102
RTVSPost2010Prop48
 90
       50
102
RTVSPost2010PropOp48
 70
     1
102
RTVSPost2010Prop49
280
     0
102
RTVSPost2010PropOp49
 70
     1
102
RTVSPost2010Prop50
 90
       50
102
RTVSPost2010PropOp50
 70
     1
102
RTVSPost2010Prop51ColorIndex
 90
      256
102
RTVSPost2010Prop51ColorRGB
 90
-16777216
102
RTVSPost2010PropOp51
 70
     0
102
RTVSPost2010Prop52
140
1.0
102
RTVSPost2010PropOp52
 70
     0
102
RTVSPost2010Prop53
 90
        2
102
RTVSPost2010PropOp53
 70
     1
102
RTVSPost2010Prop54
  1
strokes_ogs.tif
102
RTVSPost2010PropOp54
 70
     1
102
RTVSPost2010Prop55
280
     0
102
RTVSPost2010PropOp55
 70
     1
102
RTVSPost2010Prop56
140
1.0
102
RTVSPost2010PropOp56
 70
     1
102
RTVSPost2010Prop57
140
1.0
102
RTVSPost2010PropOp57
 70
     1
  0
XRECORD
  5
224
102
{ACAD_REACTORS
330
223
102
}
330
223
100
AcDbXrecord
280
     1
102
RTVSPropertyOp0
 70
     0
102
RTVSPropertyOp1
 70
     0
102
RTVSPropertyOp2
 70
     0
102
RTVSPropertyOp3
 70
     0
102
RTVSPropertyOp4
 70
     0
102
RTVSPropertyOp5
 70
     0
102
RTVSPropertyOp6
 70
     0
102
RTVSPropertyOp7
 70
     0
102
RTVSPropertyOp8
 70
     0
102
RTVSPropertyOp9
 70
     0
102
RTVSPropertyOp10
 70
     0
102
RTVSPropertyOp11
 70
     0
102
RTVSPropertyOp12
 70
     0
102
RTVSPropertyOp13
 70
     0
102
RTVSPropertyOp14
 70
     2
102
RTVSPropertyOp15
 70
     0
102
RTVSPropertyOp16
 70
     0
102
RTVSPropertyOp17
 70
     0
102
RTVSPropertyOp18
 70
     0
102
RTVSPropertyOp19
 70
     0
102
RTVSPropertyOp20
 70
     0
102
RTVSPropertyOp21
 70
     0
102
RTVSPropertyOp22
 70
     0
102
RTVSPropertyOp23
 70
     0
102
RTVSPropertyOp24
 70
     0
102
RTVSPropertyOp25
 70
     0
102
RTVSPropertyOp26
 70
     0
102
RTVSPropertyOp27
 70
     0
102
RTVSPropertyOp28
 70
     0
102
RTVSPropertyOp29
 70
     0
102
RTVSPropertyOp30
 70
     0
102
RTVSPropertyOp31
 70
     0
102
RTVSPropertyOp32
 70
     0
102
RTVSPropertyOp33
 70
     0
102
RTVSPropertyOp34
 70
     0
102
RTVSPropertyOp35
 70
     0
102
RTVSPropertyOp36
 70
     0
102
RTVSPropertyOp37
 70
     0
102
RTVSPropertyOp38
 70
     0
102
RTVSPropertyOp39
 70
     0
102
RTVSPropertyOp40
 70
     0
102
RTVSPropertyOp41
 70
     0
102
RTVSPropertyOp42
 70
     0
102
RTVSPropertyOp43
 70
     0
102
RTVSPropertyOp44
 70
     0
102
RTVSPropertyOp45
 70
     0
102
RTVSPropertyOp46
 70
     0
102
RTVSPropertyOp47
 70
     0
102
RTVSPropertyOp48
 70
     0
102
RTVSPropertyOp49
 70
     0
102
RTVSPropertyOp50
 70
     0
102
RTVSPropertyOp51
 70
     0
102
RTVSPropertyOp52
 70
     0
102
RTVSPropertyOp53
 70
     0
102
RTVSPropertyOp54
 70
     0
102
RTVSPropertyOp55
 70
     0
102
RTVSPropertyOp56
 70
     0
102
RTVSPropertyOp57
 70
     0
102
RTVSPost2010Prop28
280
     0
102
RTVSPost2010PropOp28
 70
     0
102
RTVSPost2010Prop29
280
     1
102
RTVSPost2010PropOp29
 70
     0
102
RTVSPost2010Prop30
280
     1
102
RTVSPost2010PropOp30
 70
     0
102
RTVSPost2010Prop31
280
     0
102
RTVSPost2010PropOp31
 70
     0
102
RTVSPost2010Prop32
280
     0
102
RTVSPost2010PropOp32
 70
     0
102
RTVSPost2010Prop33
280
     0
102
RTVSPost2010PropOp33
 70
     0
102
RTVSPost2010Prop34
280
     0
102
RTVSPost2010PropOp34
 70
     0
102
RTVSPost2010Prop35
280
     0
102
RTVSPost2010PropOp35
 70
     0
102
RTVSPost2010Prop36
280
     0
102
RTVSPost2010PropOp36
 70
     0
102
RTVSPost2010Prop37
 90
       50
102
RTVSPost2010PropOp37
 70
     0
102
RTVSPost2010Prop38
140
0.0
102
RTVSPost2010PropOp38
 70
     0
102
RTVSPost2010Prop39
140
1.0
102
RTVSPost2010PropOp39
 70
     0
102
RTVSPost2010Prop40
 90
        0
102
RTVSPost2010PropOp40
 70
     0
102
RTVSPost2010Prop41ColorIndex
 90
       18
102
RTVSPost2010Prop41ColorRGB
 90
        0
102
RTVSPost2010PropOp41
 70
     0
102
RTVSPost2010Prop42
 90
       50
102
RTVSPost2010PropOp42
 70
     0
102
RTVSPost2010Prop43
 90
        3
102
RTVSPost2010PropOp43
 70
     0
102
RTVSPost2010Prop44ColorIndex
 90
        5
102
RTVSPost2010Prop44ColorRGB
 90
      255
102
RTVSPost2010PropOp44
 70
     0
102
RTVSPost2010Prop45
280
     0
102
RTVSPost2010PropOp45
 70
     0
102
RTVSPost2010Prop46
 90
       50
102
RTVSPost2010PropOp46
 70
     0
102
RTVSPost2010Prop47
 90
       50
102
RTVSPost2010PropOp47
 70
     0
102
RTVSPost2010Prop48
 90
       50
102
RTVSPost2010PropOp48
 70
     0
102
RTVSPost2010Prop49
280
     0
102
RTVSPost2010PropOp49
 70
     0
102
RTVSPost2010Prop50
 90
       50
102
RTVSPost2010PropOp50
 70
     0
102
RTVSPost2010Prop51ColorIndex
 90
      256
102
RTVSPost2010Prop51ColorRGB
 90
-16777216
102
RTVSPost2010PropOp51
 70
     0
102
RTVSPost2010Prop52
140
1.0
102
RTVSPost2010PropOp52
 70
     0
102
RTVSPost2010Prop53
 90
        2
102
RTVSPost2010PropOp53
 70
     0
102
RTVSPost2010Prop54
  1
strokes_ogs.tif
102
RTVSPost2010PropOp54
 70
     0
102
RTVSPost2010Prop55
280
     0
102
RTVSPost2010PropOp55
 70
     0
102
RTVSPost2010Prop56
140
1.0
102
RTVSPost2010PropOp56
 70
     0
102
RTVSPost2010Prop57
140
1.0
102
RTVSPost2010PropOp57
 70
     0
  0
XRECORD
  5
21E
102
{ACAD_REACTORS
330
21D
102
}
330
21D
100
AcDbXrecord
280
     1
102
RTVSPropertyOp0
 70
     1
102
RTVSPropertyOp1
 70
     1
102
RTVSPropertyOp2
 70
     1
102
RTVSPropertyOp3
 70
     1
102
RTVSPropertyOp4
 70
     1
102
RTVSPropertyOp5
 70
     1
102
RTVSPropertyOp6
 70
     1
102
RTVSPropertyOp7
 70
     1
102
RTVSPropertyOp8
 70
     1
102
RTVSPropertyOp9
 70
     1
102
RTVSPropertyOp10
 70
     1
102
RTVSPropertyOp11
 70
     1
102
RTVSPropertyOp12
 70
     1
102
RTVSPropertyOp13
 70
     1
102
RTVSPropertyOp14
 70
     1
102
RTVSPropertyOp15
 70
     1
102
RTVSPropertyOp16
 70
     1
102
RTVSPropertyOp17
 70
     1
102
RTVSPropertyOp18
 70
     1
102
RTVSPropertyOp19
 70
     1
102
RTVSPropertyOp20
 70
     1
102
RTVSPropertyOp21
 70
     1
102
RTVSPropertyOp22
 70
     1
102
RTVSPropertyOp23
 70
     1
102
RTVSPropertyOp24
 70
     1
102
RTVSPropertyOp25
 70
     1
102
RTVSPropertyOp26
 70
     1
102
RTVSPropertyOp27
 70
     1
102
RTVSPropertyOp28
 70
     1
102
RTVSPropertyOp29
 70
     1
102
RTVSPropertyOp30
 70
     1
102
RTVSPropertyOp31
 70
     1
102
RTVSPropertyOp32
 70
     1
102
RTVSPropertyOp33
 70
     1
102
RTVSPropertyOp34
 70
     1
102
RTVSPropertyOp35
 70
     1
102
RTVSPropertyOp36
 70
     1
102
RTVSPropertyOp37
 70
     1
102
RTVSPropertyOp38
 70
     1
102
RTVSPropertyOp39
 70
     1
102
RTVSPropertyOp40
 70
     1
102
RTVSPropertyOp41
 70
     1
102
RTVSPropertyOp42
 70
     1
102
RTVSPropertyOp43
 70
     1
102
RTVSPropertyOp44
 70
     1
102
RTVSPropertyOp45
 70
     1
102
RTVSPropertyOp46
 70
     1
102
RTVSPropertyOp47
 70
     1
102
RTVSPropertyOp48
 70
     1
102
RTVSPropertyOp49
 70
     1
102
RTVSPropertyOp50
 70
     1
102
RTVSPropertyOp51
 70
     0
102
RTVSPropertyOp52
 70
     0
102
RTVSPropertyOp53
 70
     1
102
RTVSPropertyOp54
 70
     1
102
RTVSPropertyOp55
 70
     1
102
RTVSPropertyOp56
 70
     1
102
RTVSPropertyOp57
 70
     1
102
RTVSPost2010Prop28
280
     0
102
RTVSPost2010PropOp28
 70
     1
102
RTVSPost2010Prop29
280
     1
102
RTVSPost2010PropOp29
 70
     1
102
RTVSPost2010Prop30
280
     1
102
RTVSPost2010PropOp30
 70
     1
102
RTVSPost2010Prop31
280
     0
102
RTVSPost2010PropOp31
 70
     1
102
RTVSPost2010Prop32
280
     0
102
RTVSPost2010PropOp32
 70
     1
102
RTVSPost2010Prop33
280
     0
102
RTVSPost2010PropOp33
 70
     1
102
RTVSPost2010Prop34
280
     0
102
RTVSPost2010PropOp34
 70
     1
102
RTVSPost2010Prop35
280
     0
102
RTVSPost2010PropOp35
 70
     1
102
RTVSPost2010Prop36
280
     0
102
RTVSPost2010PropOp36
 70
     1
102
RTVSPost2010Prop37
 90
       50
102
RTVSPost2010PropOp37
 70
     1
102
RTVSPost2010Prop38
140
0.0
102
RTVSPost2010PropOp38
 70
     1
102
RTVSPost2010Prop39
140
1.0
102
RTVSPost2010PropOp39
 70
     1
102
RTVSPost2010Prop40
 90
        0
102
RTVSPost2010PropOp40
 70
     1
102
RTVSPost2010Prop41ColorIndex
 90
       18
102
RTVSPost2010Prop41ColorRGB
 90
        0
102
RTVSPost2010PropOp41
 70
     1
102
RTVSPost2010Prop42
 90
       50
102
RTVSPost2010PropOp42
 70
     1
102
RTVSPost2010Prop43
 90
        3
102
RTVSPost2010PropOp43
 70
     1
102
RTVSPost2010Prop44ColorIndex
 90
        5
102
RTVSPost2010Prop44ColorRGB
 90
      255
102
RTVSPost2010PropOp44
 70
     1
102
RTVSPost2010Prop45
280
     0
102
RTVSPost2010PropOp45
 70
     1
102
RTVSPost2010Prop46
 90
       50
102
RTVSPost2010PropOp46
 70
     1
102
RTVSPost2010Prop47
 90
       50
102
RTVSPost2010PropOp47
 70
     1
102
RTVSPost2010Prop48
 90
       50
102
RTVSPost2010PropOp48
 70
     1
102
RTVSPost2010Prop49
280
     0
102
RTVSPost2010PropOp49
 70
     1
102
RTVSPost2010Prop50
 90
       50
102
RTVSPost2010PropOp50
 70
     1
102
RTVSPost2010Prop51ColorIndex
 90
      256
102
RTVSPost2010Prop51ColorRGB
 90
-16777216
102
RTVSPost2010PropOp51
 70
     0
102
RTVSPost2010Prop52
140
1.0
102
RTVSPost2010PropOp52
 70
     0
102
RTVSPost2010Prop53
 90
        2
102
RTVSPost2010PropOp53
 70
     1
102
RTVSPost2010Prop54
  1
strokes_ogs.tif
102
RTVSPost2010PropOp54
 70
     1
102
RTVSPost2010Prop55
280
     0
102
RTVSPost2010PropOp55
 70
     1
102
RTVSPost2010Prop56
140
1.0
102
RTVSPost2010PropOp56
 70
     1
102
RTVSPost2010Prop57
140
1.0
102
RTVSPost2010PropOp57
 70
     1
  0
XRECORD
  5
226
102
{ACAD_REACTORS
330
225
102
}
330
225
100
AcDbXrecord
280
     1
102
RTVSPropertyOp0
 70
     0
102
RTVSPropertyOp1
 70
     0
102
RTVSPropertyOp2
 70
     0
102
RTVSPropertyOp3
 70
     0
102
RTVSPropertyOp4
 70
     0
102
RTVSPropertyOp5
 70
     0
102
RTVSPropertyOp6
 70
     0
102
RTVSPropertyOp7
 70
     0
102
RTVSPropertyOp8
 70
     0
102
RTVSPropertyOp9
 70
     0
102
RTVSPropertyOp10
 70
     0
102
RTVSPropertyOp11
 70
     0
102
RTVSPropertyOp12
 70
     0
102
RTVSPropertyOp13
 70
     0
102
RTVSPropertyOp14
 70
     2
102
RTVSPropertyOp15
 70
     0
102
RTVSPropertyOp16
 70
     0
102
RTVSPropertyOp17
 70
     0
102
RTVSPropertyOp18
 70
     0
102
RTVSPropertyOp19
 70
     0
102
RTVSPropertyOp20
 70
     0
102
RTVSPropertyOp21
 70
     0
102
RTVSPropertyOp22
 70
     0
102
RTVSPropertyOp23
 70
     0
102
RTVSPropertyOp24
 70
     0
102
RTVSPropertyOp25
 70
     0
102
RTVSPropertyOp26
 70
     0
102
RTVSPropertyOp27
 70
     0
102
RTVSPropertyOp28
 70
     0
102
RTVSPropertyOp29
 70
     0
102
RTVSPropertyOp30
 70
     0
102
RTVSPropertyOp31
 70
     0
102
RTVSPropertyOp32
 70
     0
102
RTVSPropertyOp33
 70
     0
102
RTVSPropertyOp34
 70
     0
102
RTVSPropertyOp35
 70
     0
102
RTVSPropertyOp36
 70
     0
102
RTVSPropertyOp37
 70
     0
102
RTVSPropertyOp38
 70
     0
102
RTVSPropertyOp39
 70
     0
102
RTVSPropertyOp40
 70
     0
102
RTVSPropertyOp41
 70
     0
102
RTVSPropertyOp42
 70
     0
102
RTVSPropertyOp43
 70
     0
102
RTVSPropertyOp44
 70
     0
102
RTVSPropertyOp45
 70
     0
102
RTVSPropertyOp46
 70
     0
102
RTVSPropertyOp47
 70
     0
102
RTVSPropertyOp48
 70
     0
102
RTVSPropertyOp49
 70
     0
102
RTVSPropertyOp50
 70
     0
102
RTVSPropertyOp51
 70
     0
102
RTVSPropertyOp52
 70
     0
102
RTVSPropertyOp53
 70
     0
102
RTVSPropertyOp54
 70
     0
102
RTVSPropertyOp55
 70
     0
102
RTVSPropertyOp56
 70
     0
102
RTVSPropertyOp57
 70
     0
102
RTVSPost2010Prop28
280
     0
102
RTVSPost2010PropOp28
 70
     0
102
RTVSPost2010Prop29
280
     1
102
RTVSPost2010PropOp29
 70
     0
102
RTVSPost2010Prop30
280
     1
102
RTVSPost2010PropOp30
 70
     0
102
RTVSPost2010Prop31
280
     0
102
RTVSPost2010PropOp31
 70
     0
102
RTVSPost2010Prop32
280
     0
102
RTVSPost2010PropOp32
 70
     0
102
RTVSPost2010Prop33
280
     0
102
RTVSPost2010PropOp33
 70
     0
102
RTVSPost2010Prop34
280
     0
102
RTVSPost2010PropOp34
 70
     0
102
RTVSPost2010Prop35
280
     0
102
RTVSPost2010PropOp35
 70
     0
102
RTVSPost2010Prop36
280
     0
102
RTVSPost2010PropOp36
 70
     0
102
RTVSPost2010Prop37
 90
       50
102
RTVSPost2010PropOp37
 70
     0
102
RTVSPost2010Prop38
140
0.0
102
RTVSPost2010PropOp38
 70
     0
102
RTVSPost2010Prop39
140
1.0
102
RTVSPost2010PropOp39
 70
     0
102
RTVSPost2010Prop40
 90
        0
102
RTVSPost2010PropOp40
 70
     0
102
RTVSPost2010Prop41ColorIndex
 90
       18
102
RTVSPost2010Prop41ColorRGB
 90
        0
102
RTVSPost2010PropOp41
 70
     0
102
RTVSPost2010Prop42
 90
       50
102
RTVSPost2010PropOp42
 70
     0
102
RTVSPost2010Prop43
 90
        3
102
RTVSPost2010PropOp43
 70
     0
102
RTVSPost2010Prop44ColorIndex
 90
        5
102
RTVSPost2010Prop44ColorRGB
 90
      255
102
RTVSPost2010PropOp44
 70
     0
102
RTVSPost2010Prop45
280
     0
102
RTVSPost2010PropOp45
 70
     0
102
RTVSPost2010Prop46
 90
       50
102
RTVSPost2010PropOp46
 70
     0
102
RTVSPost2010Prop47
 90
       50
102
RTVSPost2010PropOp47
 70
     0
102
RTVSPost2010Prop48
 90
       50
102
RTVSPost2010PropOp48
 70
     0
102
RTVSPost2010Prop49
280
     0
102
RTVSPost2010PropOp49
 70
     0
102
RTVSPost2010Prop50
 90
       50
102
RTVSPost2010PropOp50
 70
     0
102
RTVSPost2010Prop51ColorIndex
 90
      256
102
RTVSPost2010Prop51ColorRGB
 90
-16777216
102
RTVSPost2010PropOp51
 70
     0
102
RTVSPost2010Prop52
140
1.0
102
RTVSPost2010PropOp52
 70
     0
102
RTVSPost2010Prop53
 90
        2
102
RTVSPost2010PropOp53
 70
     0
102
RTVSPost2010Prop54
  1
strokes_ogs.tif
102
RTVSPost2010PropOp54
 70
     0
102
RTVSPost2010Prop55
280
     0
102
RTVSPost2010PropOp55
 70
     0
102
RTVSPost2010Prop56
140
1.0
102
RTVSPost2010PropOp56
 70
     0
102
RTVSPost2010Prop57
140
1.0
102
RTVSPost2010PropOp57
 70
     0
  0
XRECORD
  5
214
102
{ACAD_REACTORS
330
213
102
}
330
213
100
AcDbXrecord
280
     1
102
RTVSPropertyOp0
 70
     1
102
RTVSPropertyOp1
 70
     1
102
RTVSPropertyOp2
 70
     1
102
RTVSPropertyOp3
 70
     1
102
RTVSPropertyOp4
 70
     1
102
RTVSPropertyOp5
 70
     1
102
RTVSPropertyOp6
 70
     1
102
RTVSPropertyOp7
 70
     1
102
RTVSPropertyOp8
 70
     1
102
RTVSPropertyOp9
 70
     1
102
RTVSPropertyOp10
 70
     1
102
RTVSPropertyOp11
 70
     1
102
RTVSPropertyOp12
 70
     1
102
RTVSPropertyOp13
 70
     1
102
RTVSPropertyOp14
 70
     1
102
RTVSPropertyOp15
 70
     1
102
RTVSPropertyOp16
 70
     1
102
RTVSPropertyOp17
 70
     1
102
RTVSPropertyOp18
 70
     1
102
RTVSPropertyOp19
 70
     1
102
RTVSPropertyOp20
 70
     1
102
RTVSPropertyOp21
 70
     1
102
RTVSPropertyOp22
 70
     1
102
RTVSPropertyOp23
 70
     1
102
RTVSPropertyOp24
 70
     1
102
RTVSPropertyOp25
 70
     1
102
RTVSPropertyOp26
 70
     1
102
RTVSPropertyOp27
 70
     1
102
RTVSPropertyOp28
 70
     1
102
RTVSPropertyOp29
 70
     1
102
RTVSPropertyOp30
 70
     1
102
RTVSPropertyOp31
 70
     1
102
RTVSPropertyOp32
 70
     1
102
RTVSPropertyOp33
 70
     1
102
RTVSPropertyOp34
 70
     1
102
RTVSPropertyOp35
 70
     1
102
RTVSPropertyOp36
 70
     1
102
RTVSPropertyOp37
 70
     1
102
RTVSPropertyOp38
 70
     1
102
RTVSPropertyOp39
 70
     1
102
RTVSPropertyOp40
 70
     1
102
RTVSPropertyOp41
 70
     1
102
RTVSPropertyOp42
 70
     1
102
RTVSPropertyOp43
 70
     1
102
RTVSPropertyOp44
 70
     1
102
RTVSPropertyOp45
 70
     1
102
RTVSPropertyOp46
 70
     1
102
RTVSPropertyOp47
 70
     1
102
RTVSPropertyOp48
 70
     1
102
RTVSPropertyOp49
 70
     1
102
RTVSPropertyOp50
 70
     1
102
RTVSPropertyOp51
 70
     0
102
RTVSPropertyOp52
 70
     0
102
RTVSPropertyOp53
 70
     1
102
RTVSPropertyOp54
 70
     1
102
RTVSPropertyOp55
 70
     1
102
RTVSPropertyOp56
 70
     1
102
RTVSPropertyOp57
 70
     1
102
RTVSPost2010Prop28
280
     0
102
RTVSPost2010PropOp28
 70
     1
102
RTVSPost2010Prop29
280
     1
102
RTVSPost2010PropOp29
 70
     1
102
RTVSPost2010Prop30
280
     1
102
RTVSPost2010PropOp30
 70
     1
102
RTVSPost2010Prop31
280
     0
102
RTVSPost2010PropOp31
 70
     1
102
RTVSPost2010Prop32
280
     0
102
RTVSPost2010PropOp32
 70
     1
102
RTVSPost2010Prop33
280
     0
102
RTVSPost2010PropOp33
 70
     1
102
RTVSPost2010Prop34
280
     0
102
RTVSPost2010PropOp34
 70
     1
102
RTVSPost2010Prop35
280
     0
102
RTVSPost2010PropOp35
 70
     1
102
RTVSPost2010Prop36
280
     0
102
RTVSPost2010PropOp36
 70
     1
102
RTVSPost2010Prop37
 90
       50
102
RTVSPost2010PropOp37
 70
     1
102
RTVSPost2010Prop38
140
0.0
102
RTVSPost2010PropOp38
 70
     1
102
RTVSPost2010Prop39
140
1.0
102
RTVSPost2010PropOp39
 70
     1
102
RTVSPost2010Prop40
 90
        0
102
RTVSPost2010PropOp40
 70
     1
102
RTVSPost2010Prop41ColorIndex
 90
       18
102
RTVSPost2010Prop41ColorRGB
 90
        0
102
RTVSPost2010PropOp41
 70
     1
102
RTVSPost2010Prop42
 90
       50
102
RTVSPost2010PropOp42
 70
     1
102
RTVSPost2010Prop43
 90
        3
102
RTVSPost2010PropOp43
 70
     1
102
RTVSPost2010Prop44ColorIndex
 90
        5
102
RTVSPost2010Prop44ColorRGB
 90
      255
102
RTVSPost2010PropOp44
 70
     1
102
RTVSPost2010Prop45
280
     0
102
RTVSPost2010PropOp45
 70
     1
102
RTVSPost2010Prop46
 90
       50
102
RTVSPost2010PropOp46
 70
     1
102
RTVSPost2010Prop47
 90
       50
102
RTVSPost2010PropOp47
 70
     1
102
RTVSPost2010Prop48
 90
       50
102
RTVSPost2010PropOp48
 70
     1
102
RTVSPost2010Prop49
280
     0
102
RTVSPost2010PropOp49
 70
     1
102
RTVSPost2010Prop50
 90
       50
102
RTVSPost2010PropOp50
 70
     1
102
RTVSPost2010Prop51ColorIndex
 90
      256
102
RTVSPost2010Prop51ColorRGB
 90
-16777216
102
RTVSPost2010PropOp51
 70
     0
102
RTVSPost2010Prop52
140
1.0
102
RTVSPost2010PropOp52
 70
     0
102
RTVSPost2010Prop53
 90
        2
102
RTVSPost2010PropOp53
 70
     1
102
RTVSPost2010Prop54
  1
strokes_ogs.tif
102
RTVSPost2010PropOp54
 70
     1
102
RTVSPost2010Prop55
280
     0
102
RTVSPost2010PropOp55
 70
     1
102
RTVSPost2010Prop56
140
1.0
102
RTVSPost2010PropOp56
 70
     1
102
RTVSPost2010Prop57
140
1.0
102
RTVSPost2010PropOp57
 70
     1
  0
XRECORD
  5
232
102
{ACAD_REACTORS
330
231
102
}
330
231
100
AcDbXrecord
280
     1
102
RTVSPropertyOp0
 70
     1
102
RTVSPropertyOp1
 70
     1
102
RTVSPropertyOp2
 70
     1
102
RTVSPropertyOp3
 70
     1
102
RTVSPropertyOp4
 70
     1
102
RTVSPropertyOp5
 70
     1
102
RTVSPropertyOp6
 70
     1
102
RTVSPropertyOp7
 70
     1
102
RTVSPropertyOp8
 70
     1
102
RTVSPropertyOp9
 70
     1
102
RTVSPropertyOp10
 70
     1
102
RTVSPropertyOp11
 70
     1
102
RTVSPropertyOp12
 70
     1
102
RTVSPropertyOp13
 70
     1
102
RTVSPropertyOp14
 70
     1
102
RTVSPropertyOp15
 70
     1
102
RTVSPropertyOp16
 70
     1
102
RTVSPropertyOp17
 70
     1
102
RTVSPropertyOp18
 70
     1
102
RTVSPropertyOp19
 70
     1
102
RTVSPropertyOp20
 70
     1
102
RTVSPropertyOp21
 70
     1
102
RTVSPropertyOp22
 70
     1
102
RTVSPropertyOp23
 70
     1
102
RTVSPropertyOp24
 70
     1
102
RTVSPropertyOp25
 70
     1
102
RTVSPropertyOp26
 70
     1
102
RTVSPropertyOp27
 70
     1
102
RTVSPropertyOp28
 70
     1
102
RTVSPropertyOp29
 70
     1
102
RTVSPropertyOp30
 70
     1
102
RTVSPropertyOp31
 70
     1
102
RTVSPropertyOp32
 70
     1
102
RTVSPropertyOp33
 70
     1
102
RTVSPropertyOp34
 70
     1
102
RTVSPropertyOp35
 70
     1
102
RTVSPropertyOp36
 70
     1
102
RTVSPropertyOp37
 70
     1
102
RTVSPropertyOp38
 70
     1
102
RTVSPropertyOp39
 70
     1
102
RTVSPropertyOp40
 70
     1
102
RTVSPropertyOp41
 70
     1
102
RTVSPropertyOp42
 70
     1
102
RTVSPropertyOp43
 70
     1
102
RTVSPropertyOp44
 70
     1
102
RTVSPropertyOp45
 70
     1
102
RTVSPropertyOp46
 70
     1
102
RTVSPropertyOp47
 70
     1
102
RTVSPropertyOp48
 70
     1
102
RTVSPropertyOp49
 70
     1
102
RTVSPropertyOp50
 70
     1
102
RTVSPropertyOp51
 70
     0
102
RTVSPropertyOp52
 70
     0
102
RTVSPropertyOp53
 70
     1
102
RTVSPropertyOp54
 70
     1
102
RTVSPropertyOp55
 70
     1
102
RTVSPropertyOp56
 70
     1
102
RTVSPropertyOp57
 70
     1
102
RTVSPost2010Prop28
280
     0
102
RTVSPost2010PropOp28
 70
     1
102
RTVSPost2010Prop29
280
     1
102
RTVSPost2010PropOp29
 70
     1
102
RTVSPost2010Prop30
280
     1
102
RTVSPost2010PropOp30
 70
     1
102
RTVSPost2010Prop31
280
     0
102
RTVSPost2010PropOp31
 70
     1
102
RTVSPost2010Prop32
280
     0
102
RTVSPost2010PropOp32
 70
     1
102
RTVSPost2010Prop33
280
     0
102
RTVSPost2010PropOp33
 70
     1
102
RTVSPost2010Prop34
280
     0
102
RTVSPost2010PropOp34
 70
     1
102
RTVSPost2010Prop35
280
     0
102
RTVSPost2010PropOp35
 70
     1
102
RTVSPost2010Prop36
280
     0
102
RTVSPost2010PropOp36
 70
     1
102
RTVSPost2010Prop37
 90
       50
102
RTVSPost2010PropOp37
 70
     1
102
RTVSPost2010Prop38
140
0.0
102
RTVSPost2010PropOp38
 70
     1
102
RTVSPost2010Prop39
140
1.0
102
RTVSPost2010PropOp39
 70
     1
102
RTVSPost2010Prop40
 90
        0
102
RTVSPost2010PropOp40
 70
     1
102
RTVSPost2010Prop41ColorIndex
 90
       18
102
RTVSPost2010Prop41ColorRGB
 90
        0
102
RTVSPost2010PropOp41
 70
     1
102
RTVSPost2010Prop42
 90
       50
102
RTVSPost2010PropOp42
 70
     1
102
RTVSPost2010Prop43
 90
        3
102
RTVSPost2010PropOp43
 70
     1
102
RTVSPost2010Prop44ColorIndex
 90
        5
102
RTVSPost2010Prop44ColorRGB
 90
      255
102
RTVSPost2010PropOp44
 70
     1
102
RTVSPost2010Prop45
280
     0
102
RTVSPost2010PropOp45
 70
     1
102
RTVSPost2010Prop46
 90
       50
102
RTVSPost2010PropOp46
 70
     1
102
RTVSPost2010Prop47
 90
       50
102
RTVSPost2010PropOp47
 70
     1
102
RTVSPost2010Prop48
 90
       50
102
RTVSPost2010PropOp48
 70
     1
102
RTVSPost2010Prop49
280
     0
102
RTVSPost2010PropOp49
 70
     1
102
RTVSPost2010Prop50
 90
       50
102
RTVSPost2010PropOp50
 70
     1
102
RTVSPost2010Prop51ColorIndex
 90
      256
102
RTVSPost2010Prop51ColorRGB
 90
-16777216
102
RTVSPost2010PropOp51
 70
     0
102
RTVSPost2010Prop52
140
1.0
102
RTVSPost2010PropOp52
 70
     0
102
RTVSPost2010Prop53
 90
        2
102
RTVSPost2010PropOp53
 70
     1
102
RTVSPost2010Prop54
  1
strokes_ogs.tif
102
RTVSPost2010PropOp54
 70
     1
102
RTVSPost2010Prop55
280
     0
102
RTVSPost2010PropOp55
 70
     1
102
RTVSPost2010Prop56
140
1.0
102
RTVSPost2010PropOp56
 70
     1
102
RTVSPost2010Prop57
140
1.0
102
RTVSPost2010PropOp57
 70
     1
  0
XRECORD
  5
230
102
{ACAD_REACTORS
330
22F
102
}
330
22F
100
AcDbXrecord
280
     1
102
RTVSPropertyOp0
 70
     1
102
RTVSPropertyOp1
 70
     1
102
RTVSPropertyOp2
 70
     1
102
RTVSPropertyOp3
 70
     1
102
RTVSPropertyOp4
 70
     1
102
RTVSPropertyOp5
 70
     1
102
RTVSPropertyOp6
 70
     1
102
RTVSPropertyOp7
 70
     1
102
RTVSPropertyOp8
 70
     1
102
RTVSPropertyOp9
 70
     1
102
RTVSPropertyOp10
 70
     1
102
RTVSPropertyOp11
 70
     1
102
RTVSPropertyOp12
 70
     1
102
RTVSPropertyOp13
 70
     1
102
RTVSPropertyOp14
 70
     1
102
RTVSPropertyOp15
 70
     1
102
RTVSPropertyOp16
 70
     1
102
RTVSPropertyOp17
 70
     1
102
RTVSPropertyOp18
 70
     1
102
RTVSPropertyOp19
 70
     1
102
RTVSPropertyOp20
 70
     1
102
RTVSPropertyOp21
 70
     1
102
RTVSPropertyOp22
 70
     1
102
RTVSPropertyOp23
 70
     1
102
RTVSPropertyOp24
 70
     1
102
RTVSPropertyOp25
 70
     1
102
RTVSPropertyOp26
 70
     1
102
RTVSPropertyOp27
 70
     1
102
RTVSPropertyOp28
 70
     1
102
RTVSPropertyOp29
 70
     1
102
RTVSPropertyOp30
 70
     1
102
RTVSPropertyOp31
 70
     1
102
RTVSPropertyOp32
 70
     1
102
RTVSPropertyOp33
 70
     1
102
RTVSPropertyOp34
 70
     1
102
RTVSPropertyOp35
 70
     1
102
RTVSPropertyOp36
 70
     1
102
RTVSPropertyOp37
 70
     1
102
RTVSPropertyOp38
 70
     1
102
RTVSPropertyOp39
 70
     1
102
RTVSPropertyOp40
 70
     1
102
RTVSPropertyOp41
 70
     1
102
RTVSPropertyOp42
 70
     1
102
RTVSPropertyOp43
 70
     1
102
RTVSPropertyOp44
 70
     1
102
RTVSPropertyOp45
 70
     1
102
RTVSPropertyOp46
 70
     1
102
RTVSPropertyOp47
 70
     1
102
RTVSPropertyOp48
 70
     1
102
RTVSPropertyOp49
 70
     1
102
RTVSPropertyOp50
 70
     1
102
RTVSPropertyOp51
 70
     0
102
RTVSPropertyOp52
 70
     0
102
RTVSPropertyOp53
 70
     1
102
RTVSPropertyOp54
 70
     1
102
RTVSPropertyOp55
 70
     1
102
RTVSPropertyOp56
 70
     1
102
RTVSPropertyOp57
 70
     1
102
RTVSPost2010Prop28
280
     0
102
RTVSPost2010PropOp28
 70
     1
102
RTVSPost2010Prop29
280
     1
102
RTVSPost2010PropOp29
 70
     1
102
RTVSPost2010Prop30
280
     1
102
RTVSPost2010PropOp30
 70
     1
102
RTVSPost2010Prop31
280
     0
102
RTVSPost2010PropOp31
 70
     1
102
RTVSPost2010Prop32
280
     0
102
RTVSPost2010PropOp32
 70
     1
102
RTVSPost2010Prop33
280
     0
102
RTVSPost2010PropOp33
 70
     1
102
RTVSPost2010Prop34
280
     0
102
RTVSPost2010PropOp34
 70
     1
102
RTVSPost2010Prop35
280
     0
102
RTVSPost2010PropOp35
 70
     1
102
RTVSPost2010Prop36
280
     0
102
RTVSPost2010PropOp36
 70
     1
102
RTVSPost2010Prop37
 90
       50
102
RTVSPost2010PropOp37
 70
     1
102
RTVSPost2010Prop38
140
0.0
102
RTVSPost2010PropOp38
 70
     1
102
RTVSPost2010Prop39
140
1.0
102
RTVSPost2010PropOp39
 70
     1
102
RTVSPost2010Prop40
 90
        0
102
RTVSPost2010PropOp40
 70
     1
102
RTVSPost2010Prop41ColorIndex
 90
       18
102
RTVSPost2010Prop41ColorRGB
 90
        0
102
RTVSPost2010PropOp41
 70
     1
102
RTVSPost2010Prop42
 90
       50
102
RTVSPost2010PropOp42
 70
     1
102
RTVSPost2010Prop43
 90
        3
102
RTVSPost2010PropOp43
 70
     1
102
RTVSPost2010Prop44ColorIndex
 90
        5
102
RTVSPost2010Prop44ColorRGB
 90
      255
102
RTVSPost2010PropOp44
 70
     1
102
RTVSPost2010Prop45
280
     0
102
RTVSPost2010PropOp45
 70
     1
102
RTVSPost2010Prop46
 90
       50
102
RTVSPost2010PropOp46
 70
     1
102
RTVSPost2010Prop47
 90
       50
102
RTVSPost2010PropOp47
 70
     1
102
RTVSPost2010Prop48
 90
       50
102
RTVSPost2010PropOp48
 70
     1
102
RTVSPost2010Prop49
280
     0
102
RTVSPost2010PropOp49
 70
     1
102
RTVSPost2010Prop50
 90
       50
102
RTVSPost2010PropOp50
 70
     1
102
RTVSPost2010Prop51ColorIndex
 90
      256
102
RTVSPost2010Prop51ColorRGB
 90
-16777216
102
RTVSPost2010PropOp51
 70
     0
102
RTVSPost2010Prop52
140
1.0
102
RTVSPost2010PropOp52
 70
     0
102
RTVSPost2010Prop53
 90
        2
102
RTVSPost2010PropOp53
 70
     1
102
RTVSPost2010Prop54
  1
strokes_ogs.tif
102
RTVSPost2010PropOp54
 70
     1
102
RTVSPost2010Prop55
280
     0
102
RTVSPost2010PropOp55
 70
     1
102
RTVSPost2010Prop56
140
1.0
102
RTVSPost2010PropOp56
 70
     1
102
RTVSPost2010Prop57
140
1.0
102
RTVSPost2010PropOp57
 70
     1
  0
XRECORD
  5
22A
102
{ACAD_REACTORS
330
229
102
}
330
229
100
AcDbXrecord
280
     1
102
RTVSPropertyOp0
 70
     1
102
RTVSPropertyOp1
 70
     1
102
RTVSPropertyOp2
 70
     1
102
RTVSPropertyOp3
 70
     1
102
RTVSPropertyOp4
 70
     1
102
RTVSPropertyOp5
 70
     1
102
RTVSPropertyOp6
 70
     1
102
RTVSPropertyOp7
 70
     1
102
RTVSPropertyOp8
 70
     1
102
RTVSPropertyOp9
 70
     1
102
RTVSPropertyOp10
 70
     1
102
RTVSPropertyOp11
 70
     1
102
RTVSPropertyOp12
 70
     1
102
RTVSPropertyOp13
 70
     1
102
RTVSPropertyOp14
 70
     1
102
RTVSPropertyOp15
 70
     1
102
RTVSPropertyOp16
 70
     1
102
RTVSPropertyOp17
 70
     1
102
RTVSPropertyOp18
 70
     1
102
RTVSPropertyOp19
 70
     1
102
RTVSPropertyOp20
 70
     1
102
RTVSPropertyOp21
 70
     1
102
RTVSPropertyOp22
 70
     1
102
RTVSPropertyOp23
 70
     1
102
RTVSPropertyOp24
 70
     1
102
RTVSPropertyOp25
 70
     1
102
RTVSPropertyOp26
 70
     1
102
RTVSPropertyOp27
 70
     1
102
RTVSPropertyOp28
 70
     1
102
RTVSPropertyOp29
 70
     1
102
RTVSPropertyOp30
 70
     1
102
RTVSPropertyOp31
 70
     1
102
RTVSPropertyOp32
 70
     1
102
RTVSPropertyOp33
 70
     1
102
RTVSPropertyOp34
 70
     1
102
RTVSPropertyOp35
 70
     1
102
RTVSPropertyOp36
 70
     1
102
RTVSPropertyOp37
 70
     1
102
RTVSPropertyOp38
 70
     1
102
RTVSPropertyOp39
 70
     1
102
RTVSPropertyOp40
 70
     1
102
RTVSPropertyOp41
 70
     1
102
RTVSPropertyOp42
 70
     1
102
RTVSPropertyOp43
 70
     1
102
RTVSPropertyOp44
 70
     1
102
RTVSPropertyOp45
 70
     1
102
RTVSPropertyOp46
 70
     1
102
RTVSPropertyOp47
 70
     1
102
RTVSPropertyOp48
 70
     1
102
RTVSPropertyOp49
 70
     1
102
RTVSPropertyOp50
 70
     1
102
RTVSPropertyOp51
 70
     0
102
RTVSPropertyOp52
 70
     0
102
RTVSPropertyOp53
 70
     1
102
RTVSPropertyOp54
 70
     1
102
RTVSPropertyOp55
 70
     1
102
RTVSPropertyOp56
 70
     1
102
RTVSPropertyOp57
 70
     1
102
RTVSPost2010Prop28
280
     0
102
RTVSPost2010PropOp28
 70
     1
102
RTVSPost2010Prop29
280
     1
102
RTVSPost2010PropOp29
 70
     1
102
RTVSPost2010Prop30
280
     1
102
RTVSPost2010PropOp30
 70
     1
102
RTVSPost2010Prop31
280
     0
102
RTVSPost2010PropOp31
 70
     1
102
RTVSPost2010Prop32
280
     0
102
RTVSPost2010PropOp32
 70
     1
102
RTVSPost2010Prop33
280
     0
102
RTVSPost2010PropOp33
 70
     1
102
RTVSPost2010Prop34
280
     0
102
RTVSPost2010PropOp34
 70
     1
102
RTVSPost2010Prop35
280
     0
102
RTVSPost2010PropOp35
 70
     1
102
RTVSPost2010Prop36
280
     0
102
RTVSPost2010PropOp36
 70
     1
102
RTVSPost2010Prop37
 90
       50
102
RTVSPost2010PropOp37
 70
     1
102
RTVSPost2010Prop38
140
0.0
102
RTVSPost2010PropOp38
 70
     1
102
RTVSPost2010Prop39
140
1.0
102
RTVSPost2010PropOp39
 70
     1
102
RTVSPost2010Prop40
 90
        0
102
RTVSPost2010PropOp40
 70
     1
102
RTVSPost2010Prop41ColorIndex
 90
       18
102
RTVSPost2010Prop41ColorRGB
 90
        0
102
RTVSPost2010PropOp41
 70
     1
102
RTVSPost2010Prop42
 90
       50
102
RTVSPost2010PropOp42
 70
     1
102
RTVSPost2010Prop43
 90
        3
102
RTVSPost2010PropOp43
 70
     1
102
RTVSPost2010Prop44ColorIndex
 90
        5
102
RTVSPost2010Prop44ColorRGB
 90
      255
102
RTVSPost2010PropOp44
 70
     1
102
RTVSPost2010Prop45
280
     0
102
RTVSPost2010PropOp45
 70
     1
102
RTVSPost2010Prop46
 90
       50
102
RTVSPost2010PropOp46
 70
     1
102
RTVSPost2010Prop47
 90
       50
102
RTVSPost2010PropOp47
 70
     1
102
RTVSPost2010Prop48
 90
       50
102
RTVSPost2010PropOp48
 70
     1
102
RTVSPost2010Prop49
280
     0
102
RTVSPost2010PropOp49
 70
     1
102
RTVSPost2010Prop50
 90
       50
102
RTVSPost2010PropOp50
 70
     1
102
RTVSPost2010Prop51ColorIndex
 90
      256
102
RTVSPost2010Prop51ColorRGB
 90
-16777216
102
RTVSPost2010PropOp51
 70
     0
102
RTVSPost2010Prop52
140
1.0
102
RTVSPost2010PropOp52
 70
     0
102
RTVSPost2010Prop53
 90
        2
102
RTVSPost2010PropOp53
 70
     1
102
RTVSPost2010Prop54
  1
strokes_ogs.tif
102
RTVSPost2010PropOp54
 70
     1
102
RTVSPost2010Prop55
280
     0
102
RTVSPost2010PropOp55
 70
     1
102
RTVSPost2010Prop56
140
1.0
102
RTVSPost2010PropOp56
 70
     1
102
RTVSPost2010Prop57
140
1.0
102
RTVSPost2010PropOp57
 70
     1
  0
XRECORD
  5
22C
102
{ACAD_REACTORS
330
22B
102
}
330
22B
100
AcDbXrecord
280
     1
102
RTVSPropertyOp0
 70
     1
102
RTVSPropertyOp1
 70
     1
102
RTVSPropertyOp2
 70
     1
102
RTVSPropertyOp3
 70
     1
102
RTVSPropertyOp4
 70
     1
102
RTVSPropertyOp5
 70
     1
102
RTVSPropertyOp6
 70
     1
102
RTVSPropertyOp7
 70
     1
102
RTVSPropertyOp8
 70
     1
102
RTVSPropertyOp9
 70
     1
102
RTVSPropertyOp10
 70
     1
102
RTVSPropertyOp11
 70
     1
102
RTVSPropertyOp12
 70
     1
102
RTVSPropertyOp13
 70
     1
102
RTVSPropertyOp14
 70
     1
102
RTVSPropertyOp15
 70
     1
102
RTVSPropertyOp16
 70
     1
102
RTVSPropertyOp17
 70
     1
102
RTVSPropertyOp18
 70
     1
102
RTVSPropertyOp19
 70
     1
102
RTVSPropertyOp20
 70
     1
102
RTVSPropertyOp21
 70
     1
102
RTVSPropertyOp22
 70
     1
102
RTVSPropertyOp23
 70
     1
102
RTVSPropertyOp24
 70
     1
102
RTVSPropertyOp25
 70
     1
102
RTVSPropertyOp26
 70
     1
102
RTVSPropertyOp27
 70
     1
102
RTVSPropertyOp28
 70
     1
102
RTVSPropertyOp29
 70
     1
102
RTVSPropertyOp30
 70
     1
102
RTVSPropertyOp31
 70
     1
102
RTVSPropertyOp32
 70
     1
102
RTVSPropertyOp33
 70
     1
102
RTVSPropertyOp34
 70
     1
102
RTVSPropertyOp35
 70
     1
102
RTVSPropertyOp36
 70
     1
102
RTVSPropertyOp37
 70
     1
102
RTVSPropertyOp38
 70
     1
102
RTVSPropertyOp39
 70
     1
102
RTVSPropertyOp40
 70
     1
102
RTVSPropertyOp41
 70
     1
102
RTVSPropertyOp42
 70
     1
102
RTVSPropertyOp43
 70
     1
102
RTVSPropertyOp44
 70
     1
102
RTVSPropertyOp45
 70
     1
102
RTVSPropertyOp46
 70
     1
102
RTVSPropertyOp47
 70
     1
102
RTVSPropertyOp48
 70
     1
102
RTVSPropertyOp49
 70
     1
102
RTVSPropertyOp50
 70
     1
102
RTVSPropertyOp51
 70
     0
102
RTVSPropertyOp52
 70
     0
102
RTVSPropertyOp53
 70
     1
102
RTVSPropertyOp54
 70
     1
102
RTVSPropertyOp55
 70
     1
102
RTVSPropertyOp56
 70
     1
102
RTVSPropertyOp57
 70
     1
102
RTVSPost2010Prop28
280
     0
102
RTVSPost2010PropOp28
 70
     1
102
RTVSPost2010Prop29
280
     1
102
RTVSPost2010PropOp29
 70
     1
102
RTVSPost2010Prop30
280
     1
102
RTVSPost2010PropOp30
 70
     1
102
RTVSPost2010Prop31
280
     0
102
RTVSPost2010PropOp31
 70
     1
102
RTVSPost2010Prop32
280
     0
102
RTVSPost2010PropOp32
 70
     1
102
RTVSPost2010Prop33
280
     0
102
RTVSPost2010PropOp33
 70
     1
102
RTVSPost2010Prop34
280
     0
102
RTVSPost2010PropOp34
 70
     1
102
RTVSPost2010Prop35
280
     0
102
RTVSPost2010PropOp35
 70
     1
102
RTVSPost2010Prop36
280
     0
102
RTVSPost2010PropOp36
 70
     1
102
RTVSPost2010Prop37
 90
       50
102
RTVSPost2010PropOp37
 70
     1
102
RTVSPost2010Prop38
140
0.0
102
RTVSPost2010PropOp38
 70
     1
102
RTVSPost2010Prop39
140
1.0
102
RTVSPost2010PropOp39
 70
     1
102
RTVSPost2010Prop40
 90
        0
102
RTVSPost2010PropOp40
 70
     1
102
RTVSPost2010Prop41ColorIndex
 90
       18
102
RTVSPost2010Prop41ColorRGB
 90
        0
102
RTVSPost2010PropOp41
 70
     1
102
RTVSPost2010Prop42
 90
       50
102
RTVSPost2010PropOp42
 70
     1
102
RTVSPost2010Prop43
 90
        3
102
RTVSPost2010PropOp43
 70
     1
102
RTVSPost2010Prop44ColorIndex
 90
        5
102
RTVSPost2010Prop44ColorRGB
 90
      255
102
RTVSPost2010PropOp44
 70
     1
102
RTVSPost2010Prop45
280
     0
102
RTVSPost2010PropOp45
 70
     1
102
RTVSPost2010Prop46
 90
       50
102
RTVSPost2010PropOp46
 70
     1
102
RTVSPost2010Prop47
 90
       50
102
RTVSPost2010PropOp47
 70
     1
102
RTVSPost2010Prop48
 90
       50
102
RTVSPost2010PropOp48
 70
     1
102
RTVSPost2010Prop49
280
     0
102
RTVSPost2010PropOp49
 70
     1
102
RTVSPost2010Prop50
 90
       50
102
RTVSPost2010PropOp50
 70
     1
102
RTVSPost2010Prop51ColorIndex
 90
      256
102
RTVSPost2010Prop51ColorRGB
 90
-16777216
102
RTVSPost2010PropOp51
 70
     0
102
RTVSPost2010Prop52
140
1.0
102
RTVSPost2010PropOp52
 70
     0
102
RTVSPost2010Prop53
 90
        2
102
RTVSPost2010PropOp53
 70
     1
102
RTVSPost2010Prop54
  1
strokes_ogs.tif
102
RTVSPost2010PropOp54
 70
     1
102
RTVSPost2010Prop55
280
     0
102
RTVSPost2010PropOp55
 70
     1
102
RTVSPost2010Prop56
140
1.0
102
RTVSPost2010PropOp56
 70
     1
102
RTVSPost2010Prop57
140
1.0
102
RTVSPost2010PropOp57
 70
     1
  0
XRECORD
  5
21C
102
{ACAD_REACTORS
330
21B
102
}
330
21B
100
AcDbXrecord
280
     1
102
RTVSPropertyOp0
 70
     1
102
RTVSPropertyOp1
 70
     1
102
RTVSPropertyOp2
 70
     1
102
RTVSPropertyOp3
 70
     1
102
RTVSPropertyOp4
 70
     1
102
RTVSPropertyOp5
 70
     1
102
RTVSPropertyOp6
 70
     1
102
RTVSPropertyOp7
 70
     1
102
RTVSPropertyOp8
 70
     1
102
RTVSPropertyOp9
 70
     1
102
RTVSPropertyOp10
 70
     1
102
RTVSPropertyOp11
 70
     1
102
RTVSPropertyOp12
 70
     1
102
RTVSPropertyOp13
 70
     1
102
RTVSPropertyOp14
 70
     1
102
RTVSPropertyOp15
 70
     1
102
RTVSPropertyOp16
 70
     1
102
RTVSPropertyOp17
 70
     1
102
RTVSPropertyOp18
 70
     1
102
RTVSPropertyOp19
 70
     1
102
RTVSPropertyOp20
 70
     1
102
RTVSPropertyOp21
 70
     1
102
RTVSPropertyOp22
 70
     1
102
RTVSPropertyOp23
 70
     1
102
RTVSPropertyOp24
 70
     1
102
RTVSPropertyOp25
 70
     1
102
RTVSPropertyOp26
 70
     1
102
RTVSPropertyOp27
 70
     1
102
RTVSPropertyOp28
 70
     1
102
RTVSPropertyOp29
 70
     1
102
RTVSPropertyOp30
 70
     1
102
RTVSPropertyOp31
 70
     1
102
RTVSPropertyOp32
 70
     1
102
RTVSPropertyOp33
 70
     1
102
RTVSPropertyOp34
 70
     1
102
RTVSPropertyOp35
 70
     1
102
RTVSPropertyOp36
 70
     1
102
RTVSPropertyOp37
 70
     1
102
RTVSPropertyOp38
 70
     1
102
RTVSPropertyOp39
 70
     1
102
RTVSPropertyOp40
 70
     1
102
RTVSPropertyOp41
 70
     1
102
RTVSPropertyOp42
 70
     1
102
RTVSPropertyOp43
 70
     1
102
RTVSPropertyOp44
 70
     1
102
RTVSPropertyOp45
 70
     1
102
RTVSPropertyOp46
 70
     1
102
RTVSPropertyOp47
 70
     1
102
RTVSPropertyOp48
 70
     1
102
RTVSPropertyOp49
 70
     1
102
RTVSPropertyOp50
 70
     1
102
RTVSPropertyOp51
 70
     0
102
RTVSPropertyOp52
 70
     0
102
RTVSPropertyOp53
 70
     1
102
RTVSPropertyOp54
 70
     1
102
RTVSPropertyOp55
 70
     1
102
RTVSPropertyOp56
 70
     1
102
RTVSPropertyOp57
 70
     1
102
RTVSPost2010Prop28
280
     0
102
RTVSPost2010PropOp28
 70
     1
102
RTVSPost2010Prop29
280
     1
102
RTVSPost2010PropOp29
 70
     1
102
RTVSPost2010Prop30
280
     1
102
RTVSPost2010PropOp30
 70
     1
102
RTVSPost2010Prop31
280
     0
102
RTVSPost2010PropOp31
 70
     1
102
RTVSPost2010Prop32
280
     0
102
RTVSPost2010PropOp32
 70
     1
102
RTVSPost2010Prop33
280
     0
102
RTVSPost2010PropOp33
 70
     1
102
RTVSPost2010Prop34
280
     0
102
RTVSPost2010PropOp34
 70
     1
102
RTVSPost2010Prop35
280
     0
102
RTVSPost2010PropOp35
 70
     1
102
RTVSPost2010Prop36
280
     0
102
RTVSPost2010PropOp36
 70
     1
102
RTVSPost2010Prop37
 90
       50
102
RTVSPost2010PropOp37
 70
     1
102
RTVSPost2010Prop38
140
0.0
102
RTVSPost2010PropOp38
 70
     1
102
RTVSPost2010Prop39
140
1.0
102
RTVSPost2010PropOp39
 70
     1
102
RTVSPost2010Prop40
 90
        0
102
RTVSPost2010PropOp40
 70
     1
102
RTVSPost2010Prop41ColorIndex
 90
       18
102
RTVSPost2010Prop41ColorRGB
 90
        0
102
RTVSPost2010PropOp41
 70
     1
102
RTVSPost2010Prop42
 90
       50
102
RTVSPost2010PropOp42
 70
     1
102
RTVSPost2010Prop43
 90
        3
102
RTVSPost2010PropOp43
 70
     1
102
RTVSPost2010Prop44ColorIndex
 90
        5
102
RTVSPost2010Prop44ColorRGB
 90
      255
102
RTVSPost2010PropOp44
 70
     1
102
RTVSPost2010Prop45
280
     0
102
RTVSPost2010PropOp45
 70
     1
102
RTVSPost2010Prop46
 90
       50
102
RTVSPost2010PropOp46
 70
     1
102
RTVSPost2010Prop47
 90
       50
102
RTVSPost2010PropOp47
 70
     1
102
RTVSPost2010Prop48
 90
       50
102
RTVSPost2010PropOp48
 70
     1
102
RTVSPost2010Prop49
280
     0
102
RTVSPost2010PropOp49
 70
     1
102
RTVSPost2010Prop50
 90
       50
102
RTVSPost2010PropOp50
 70
     1
102
RTVSPost2010Prop51ColorIndex
 90
      256
102
RTVSPost2010Prop51ColorRGB
 90
-16777216
102
RTVSPost2010PropOp51
 70
     0
102
RTVSPost2010Prop52
140
1.0
102
RTVSPost2010PropOp52
 70
     0
102
RTVSPost2010Prop53
 90
        2
102
RTVSPost2010PropOp53
 70
     1
102
RTVSPost2010Prop54
  1
strokes_ogs.tif
102
RTVSPost2010PropOp54
 70
     1
102
RTVSPost2010Prop55
280
     0
102
RTVSPost2010PropOp55
 70
     1
102
RTVSPost2010Prop56
140
1.0
102
RTVSPost2010PropOp56
 70
     1
102
RTVSPost2010Prop57
140
1.0
102
RTVSPost2010PropOp57
 70
     1
  0
XRECORD
  5
20E
102
{ACAD_REACTORS
330
20D
102
}
330
20D
100
AcDbXrecord
280
     1
102
RTVSPropertyOp0
 70
     1
102
RTVSPropertyOp1
 70
     1
102
RTVSPropertyOp2
 70
     1
102
RTVSPropertyOp3
 70
     1
102
RTVSPropertyOp4
 70
     1
102
RTVSPropertyOp5
 70
     1
102
RTVSPropertyOp6
 70
     1
102
RTVSPropertyOp7
 70
     1
102
RTVSPropertyOp8
 70
     1
102
RTVSPropertyOp9
 70
     1
102
RTVSPropertyOp10
 70
     1
102
RTVSPropertyOp11
 70
     1
102
RTVSPropertyOp12
 70
     1
102
RTVSPropertyOp13
 70
     1
102
RTVSPropertyOp14
 70
     1
102
RTVSPropertyOp15
 70
     1
102
RTVSPropertyOp16
 70
     1
102
RTVSPropertyOp17
 70
     1
102
RTVSPropertyOp18
 70
     1
102
RTVSPropertyOp19
 70
     1
102
RTVSPropertyOp20
 70
     1
102
RTVSPropertyOp21
 70
     1
102
RTVSPropertyOp22
 70
     1
102
RTVSPropertyOp23
 70
     1
102
RTVSPropertyOp24
 70
     1
102
RTVSPropertyOp25
 70
     1
102
RTVSPropertyOp26
 70
     1
102
RTVSPropertyOp27
 70
     1
102
RTVSPropertyOp28
 70
     1
102
RTVSPropertyOp29
 70
     1
102
RTVSPropertyOp30
 70
     1
102
RTVSPropertyOp31
 70
     1
102
RTVSPropertyOp32
 70
     1
102
RTVSPropertyOp33
 70
     1
102
RTVSPropertyOp34
 70
     1
102
RTVSPropertyOp35
 70
     1
102
RTVSPropertyOp36
 70
     1
102
RTVSPropertyOp37
 70
     1
102
RTVSPropertyOp38
 70
     1
102
RTVSPropertyOp39
 70
     1
102
RTVSPropertyOp40
 70
     1
102
RTVSPropertyOp41
 70
     1
102
RTVSPropertyOp42
 70
     1
102
RTVSPropertyOp43
 70
     1
102
RTVSPropertyOp44
 70
     1
102
RTVSPropertyOp45
 70
     1
102
RTVSPropertyOp46
 70
     1
102
RTVSPropertyOp47
 70
     1
102
RTVSPropertyOp48
 70
     1
102
RTVSPropertyOp49
 70
     1
102
RTVSPropertyOp50
 70
     1
102
RTVSPropertyOp51
 70
     0
102
RTVSPropertyOp52
 70
     0
102
RTVSPropertyOp53
 70
     1
102
RTVSPropertyOp54
 70
     1
102
RTVSPropertyOp55
 70
     1
102
RTVSPropertyOp56
 70
     1
102
RTVSPropertyOp57
 70
     1
102
RTVSPost2010Prop28
280
     0
102
RTVSPost2010PropOp28
 70
     1
102
RTVSPost2010Prop29
280
     1
102
RTVSPost2010PropOp29
 70
     1
102
RTVSPost2010Prop30
280
     1
102
RTVSPost2010PropOp30
 70
     1
102
RTVSPost2010Prop31
280
     0
102
RTVSPost2010PropOp31
 70
     1
102
RTVSPost2010Prop32
280
     0
102
RTVSPost2010PropOp32
 70
     1
102
RTVSPost2010Prop33
280
     0
102
RTVSPost2010PropOp33
 70
     1
102
RTVSPost2010Prop34
280
     0
102
RTVSPost2010PropOp34
 70
     1
102
RTVSPost2010Prop35
280
     0
102
RTVSPost2010PropOp35
 70
     1
102
RTVSPost2010Prop36
280
     0
102
RTVSPost2010PropOp36
 70
     1
102
RTVSPost2010Prop37
 90
       50
102
RTVSPost2010PropOp37
 70
     1
102
RTVSPost2010Prop38
140
0.0
102
RTVSPost2010PropOp38
 70
     1
102
RTVSPost2010Prop39
140
1.0
102
RTVSPost2010PropOp39
 70
     1
102
RTVSPost2010Prop40
 90
        0
102
RTVSPost2010PropOp40
 70
     1
102
RTVSPost2010Prop41ColorIndex
 90
       18
102
RTVSPost2010Prop41ColorRGB
 90
        0
102
RTVSPost2010PropOp41
 70
     1
102
RTVSPost2010Prop42
 90
       50
102
RTVSPost2010PropOp42
 70
     1
102
RTVSPost2010Prop43
 90
        3
102
RTVSPost2010PropOp43
 70
     1
102
RTVSPost2010Prop44ColorIndex
 90
        5
102
RTVSPost2010Prop44ColorRGB
 90
      255
102
RTVSPost2010PropOp44
 70
     1
102
RTVSPost2010Prop45
280
     0
102
RTVSPost2010PropOp45
 70
     1
102
RTVSPost2010Prop46
 90
       50
102
RTVSPost2010PropOp46
 70
     1
102
RTVSPost2010Prop47
 90
       50
102
RTVSPost2010PropOp47
 70
     1
102
RTVSPost2010Prop48
 90
       50
102
RTVSPost2010PropOp48
 70
     1
102
RTVSPost2010Prop49
280
     0
102
RTVSPost2010PropOp49
 70
     1
102
RTVSPost2010Prop50
 90
       50
102
RTVSPost2010PropOp50
 70
     1
102
RTVSPost2010Prop51ColorIndex
 90
      256
102
RTVSPost2010Prop51ColorRGB
 90
-16777216
102
RTVSPost2010PropOp51
 70
     0
102
RTVSPost2010Prop52
140
1.0
102
RTVSPost2010PropOp52
 70
     0
102
RTVSPost2010Prop53
 90
        2
102
RTVSPost2010PropOp53
 70
     1
102
RTVSPost2010Prop54
  1
strokes_ogs.tif
102
RTVSPost2010PropOp54
 70
     1
102
RTVSPost2010Prop55
280
     0
102
RTVSPost2010PropOp55
 70
     1
102
RTVSPost2010Prop56
140
1.0
102
RTVSPost2010PropOp56
 70
     1
102
RTVSPost2010Prop57
140
1.0
102
RTVSPost2010PropOp57
 70
     1
  0
XRECORD
  5
22E
102
{ACAD_REACTORS
330
22D
102
}
330
22D
100
AcDbXrecord
280
     1
102
RTVSPropertyOp0
 70
     1
102
RTVSPropertyOp1
 70
     1
102
RTVSPropertyOp2
 70
     1
102
RTVSPropertyOp3
 70
     1
102
RTVSPropertyOp4
 70
     1
102
RTVSPropertyOp5
 70
     1
102
RTVSPropertyOp6
 70
     1
102
RTVSPropertyOp7
 70
     1
102
RTVSPropertyOp8
 70
     1
102
RTVSPropertyOp9
 70
     1
102
RTVSPropertyOp10
 70
     1
102
RTVSPropertyOp11
 70
     1
102
RTVSPropertyOp12
 70
     1
102
RTVSPropertyOp13
 70
     1
102
RTVSPropertyOp14
 70
     1
102
RTVSPropertyOp15
 70
     1
102
RTVSPropertyOp16
 70
     1
102
RTVSPropertyOp17
 70
     1
102
RTVSPropertyOp18
 70
     1
102
RTVSPropertyOp19
 70
     1
102
RTVSPropertyOp20
 70
     1
102
RTVSPropertyOp21
 70
     1
102
RTVSPropertyOp22
 70
     1
102
RTVSPropertyOp23
 70
     1
102
RTVSPropertyOp24
 70
     1
102
RTVSPropertyOp25
 70
     1
102
RTVSPropertyOp26
 70
     1
102
RTVSPropertyOp27
 70
     1
102
RTVSPropertyOp28
 70
     1
102
RTVSPropertyOp29
 70
     1
102
RTVSPropertyOp30
 70
     1
102
RTVSPropertyOp31
 70
     1
102
RTVSPropertyOp32
 70
     1
102
RTVSPropertyOp33
 70
     1
102
RTVSPropertyOp34
 70
     1
102
RTVSPropertyOp35
 70
     1
102
RTVSPropertyOp36
 70
     1
102
RTVSPropertyOp37
 70
     1
102
RTVSPropertyOp38
 70
     1
102
RTVSPropertyOp39
 70
     1
102
RTVSPropertyOp40
 70
     1
102
RTVSPropertyOp41
 70
     1
102
RTVSPropertyOp42
 70
     1
102
RTVSPropertyOp43
 70
     1
102
RTVSPropertyOp44
 70
     1
102
RTVSPropertyOp45
 70
     1
102
RTVSPropertyOp46
 70
     1
102
RTVSPropertyOp47
 70
     1
102
RTVSPropertyOp48
 70
     1
102
RTVSPropertyOp49
 70
     1
102
RTVSPropertyOp50
 70
     1
102
RTVSPropertyOp51
 70
     0
102
RTVSPropertyOp52
 70
     0
102
RTVSPropertyOp53
 70
     1
102
RTVSPropertyOp54
 70
     1
102
RTVSPropertyOp55
 70
     1
102
RTVSPropertyOp56
 70
     1
102
RTVSPropertyOp57
 70
     1
102
RTVSPost2010Prop28
280
     0
102
RTVSPost2010PropOp28
 70
     1
102
RTVSPost2010Prop29
280
     1
102
RTVSPost2010PropOp29
 70
     1
102
RTVSPost2010Prop30
280
     1
102
RTVSPost2010PropOp30
 70
     1
102
RTVSPost2010Prop31
280
     0
102
RTVSPost2010PropOp31
 70
     1
102
RTVSPost2010Prop32
280
     0
102
RTVSPost2010PropOp32
 70
     1
102
RTVSPost2010Prop33
280
     0
102
RTVSPost2010PropOp33
 70
     1
102
RTVSPost2010Prop34
280
     0
102
RTVSPost2010PropOp34
 70
     1
102
RTVSPost2010Prop35
280
     0
102
RTVSPost2010PropOp35
 70
     1
102
RTVSPost2010Prop36
280
     0
102
RTVSPost2010PropOp36
 70
     1
102
RTVSPost2010Prop37
 90
       50
102
RTVSPost2010PropOp37
 70
     1
102
RTVSPost2010Prop38
140
0.0
102
RTVSPost2010PropOp38
 70
     1
102
RTVSPost2010Prop39
140
1.0
102
RTVSPost2010PropOp39
 70
     1
102
RTVSPost2010Prop40
 90
        0
102
RTVSPost2010PropOp40
 70
     1
102
RTVSPost2010Prop41ColorIndex
 90
       18
102
RTVSPost2010Prop41ColorRGB
 90
        0
102
RTVSPost2010PropOp41
 70
     1
102
RTVSPost2010Prop42
 90
       50
102
RTVSPost2010PropOp42
 70
     1
102
RTVSPost2010Prop43
 90
        3
102
RTVSPost2010PropOp43
 70
     1
102
RTVSPost2010Prop44ColorIndex
 90
        5
102
RTVSPost2010Prop44ColorRGB
 90
      255
102
RTVSPost2010PropOp44
 70
     1
102
RTVSPost2010Prop45
280
     0
102
RTVSPost2010PropOp45
 70
     1
102
RTVSPost2010Prop46
 90
       50
102
RTVSPost2010PropOp46
 70
     1
102
RTVSPost2010Prop47
 90
       50
102
RTVSPost2010PropOp47
 70
     1
102
RTVSPost2010Prop48
 90
       50
102
RTVSPost2010PropOp48
 70
     1
102
RTVSPost2010Prop49
280
     0
102
RTVSPost2010PropOp49
 70
     1
102
RTVSPost2010Prop50
 90
       50
102
RTVSPost2010PropOp50
 70
     1
102
RTVSPost2010Prop51ColorIndex
 90
      256
102
RTVSPost2010Prop51ColorRGB
 90
-16777216
102
RTVSPost2010PropOp51
 70
     0
102
RTVSPost2010Prop52
140
1.0
102
RTVSPost2010PropOp52
 70
     0
102
RTVSPost2010Prop53
 90
        2
102
RTVSPost2010PropOp53
 70
     1
102
RTVSPost2010Prop54
  1
strokes_ogs.tif
102
RTVSPost2010PropOp54
 70
     1
102
RTVSPost2010Prop55
280
     0
102
RTVSPost2010PropOp55
 70
     1
102
RTVSPost2010Prop56
140
1.0
102
RTVSPost2010PropOp56
 70
     1
102
RTVSPost2010Prop57
140
1.0
102
RTVSPost2010PropOp57
 70
     1
  0
ENDSEC
  0
EOF
